<?xml version="1.0" standalone="no"?>
<!DOCTYPE svg PUBLIC "-//W3C//DTD SVG 1.1//EN" "http://www.w3.org/Graphics/SVG/1.1/DTD/svg11.dtd" >
<svg xmlns="http://www.w3.org/2000/svg" xmlns:xlink="http://www.w3.org/1999/xlink" version="1.1">
<metadata>
Created by FontForge 20170731 at Wed Jan 23 08:57:16 44436064
 By Aleksey,,,
Copyright (C) 1992 Emigre Graphics, Designed by Jonathan Barnbrook
</metadata>
<defs>
<font id="ExocetLight" horiz-adv-x="0" >
  <font-face 
    font-family="Exocet"
    font-weight="300"
    font-stretch="normal"
    units-per-em="1000"
    panose-1="0 0 3 0 0 0 0 0 0 0"
    ascent="800"
    descent="-200"
    x-height="586"
    cap-height="586"
    bbox="-38 -254 1052 826"
    underline-thickness="8"
    underline-position="-36"
    unicode-range="U+0020-F002"
  />
<missing-glyph horiz-adv-x="500" 
d="M63 0v720h375v-720h-375zM125 63h250v595h-250v-595z" />
    <glyph glyph-name=".notdef" horiz-adv-x="500" 
d="M63 0v720h375v-720h-375zM125 63h250v595h-250v-595z" />
    <glyph glyph-name="glyph1" 
 />
    <glyph glyph-name="glyph2" horiz-adv-x="408" 
 />
    <glyph glyph-name="space" unicode=" " horiz-adv-x="408" 
 />
    <glyph glyph-name="exclam" unicode="!" horiz-adv-x="408" 
d="M235 565l-35 -381l-16 -16l-16 16l-35 381l51 51zM256 45l-72 -72l-72 72l72 72z" />
    <glyph glyph-name="quotedbl" unicode="&#x22;" horiz-adv-x="534" 
d="M438 552l-64 -160l-64 160l64 64zM224 552l-64 -160l-64 160l64 64z" />
    <glyph glyph-name="numbersign" unicode="#" horiz-adv-x="518" 
d="M446 409h-74l-14 -93h64v-46h-71l-19 -129h-50l19 129h-111l-20 -129h-50l19 129h-66v46h73l14 93h-64v46h71l19 129h51l-19 -129h111l19 129h50l-19 -129h67v-46zM322 409h-112l-13 -93h111z" />
    <glyph glyph-name="dollar" unicode="$" horiz-adv-x="596" 
d="M478 153q0 -63 -44 -107.5t-109 -55.5v-56h-53v54q-73 5 -119 58q-31 36 -39 73l82 36l6 -10q-21 -13 -21 -27q0 -18 23 -40q28 -27 68 -32v240l-34 19q-58 32 -81 67q-19 30 -19 74q0 56 40 97q37 38 94 47v48h53v-49q91 -14 133 -95l-68 -61l-8 13q16 15 16 28
q0 18 -21.5 35.5t-51.5 23.5v-203l57 -30q96 -51 96 -147zM272 358v174q-73 -15 -73 -86q0 -49 73 -88zM416 154q0 31 -23 55q-18 19 -63 46l-5 3v-211q42 10 66.5 39t24.5 68z" />
    <glyph glyph-name="percent" unicode="%" horiz-adv-x="817" 
d="M379 426q0 -65 -46 -111t-111 -46q-66 0 -112 46t-46 111q0 66 46 112t112 46q65 0 111 -46t46 -112zM613 584l-356 -584h-53l356 584h53zM753 158q0 -66 -46.5 -112t-111.5 -46t-111 46t-46 112q0 65 46 111t111 46t111.5 -46t46.5 -111zM283 516q-27 19 -61 19
q-45 0 -77 -32t-32 -77q0 -34 19 -61zM330 426q0 33 -16 58l-150 -150q25 -16 58 -16q45 0 76.5 31.5t31.5 76.5zM657 247q-27 19 -62 19q-45 0 -77 -31.5t-32 -76.5q0 -32 20 -62zM704 158q0 30 -16 57l-150 -150q23 -16 57 -16q45 0 77 32t32 77z" />
    <glyph glyph-name="ampersand" unicode="&#x26;" horiz-adv-x="744" 
d="M731 -2h-9q-6 0 -22 1t-26 1q-12 0 -54 -3l-99 117l-89 -80q-55 -49 -126 -49q-78 0 -133.5 55.5t-55.5 133.5q0 105 92 162q-53 45 -53 114q0 62 44 105.5t106 43.5t105.5 -43.5t43.5 -105.5q0 -69 -53 -114q29 -17 76 -74l48 -58l28 26q23 21 23 34q0 10 -11 26
q-1 2 -4 5l7 13l5 -6q11 -14 30 -38l33 -38q11 -11 33 -34l6 -7l-14 -4l-5 5q-16 15 -28 15q-13 0 -34 -19l-29 -26l80 -96q37 -45 72 -49q4 -1 8 0zM394 450q0 36 -26 62t-62 26q-37 0 -62.5 -26t-25.5 -62q0 -37 25.5 -62.5t62.5 -25.5q36 0 62 25.5t26 62.5zM480 162
l-90 104q-29 34 -84 34q-52 0 -89.5 -37t-37.5 -89t37.5 -89.5t89.5 -37.5q50 0 93 40z" />
    <glyph glyph-name="quotesingle" unicode="'" horiz-adv-x="320" 
d="M224 552l-64 -160l-64 160l64 64z" />
    <glyph glyph-name="parenleft" unicode="(" horiz-adv-x="480" 
d="M375 -102l-24 -30l-159 120v599l159 120l24 -29l-127 -120v-540z" />
    <glyph glyph-name="parenright" unicode=")" horiz-adv-x="480" 
d="M288 -12l-159 -120l-24 30l127 120v540l-127 120l24 29l159 -120v-599z" />
    <glyph glyph-name="asterisk" unicode="*" horiz-adv-x="456" 
d="M374 349l-63 -17l-9 27l-48 28v-56l20 -20l-46 -46l-46 46l20 20v56l-49 -28l-8 -27l-63 17l16 64l28 -7l48 28l-48 28l-28 -7l-16 63l63 18l8 -28l49 -28v56l-20 20l46 46l46 -46l-20 -20v-55l48 27l9 28l63 -18l-16 -63l-28 7l-49 -28l49 -28l28 7z" />
    <glyph glyph-name="plus" unicode="+" horiz-adv-x="643" 
d="M473 224l-14 6v7q-2 22 -11 29.5t-38 7.5h-57v-57q0 -28 7.5 -37.5t29.5 -11.5h8l5 -14h-9q-8 0 -25 1.5t-23 1.5h-49q-5 0 -22 -1.5t-26 -1.5h-9l6 14h7q22 2 29.5 11.5t7.5 37.5v57h-57q-28 0 -37.5 -7.5t-11.5 -29.5v-7l-14 -6v9q0 9 1.5 26t1.5 22v49q0 6 -1.5 23
t-1.5 25v9l14 -5v-8q2 -22 11.5 -29.5t37.5 -7.5h57v57q0 29 -7.5 38t-29.5 11h-7l-6 14h9q9 0 26 -1.5t22 -1.5h49q6 0 23 1.5t25 1.5h9l-5 -14h-8q-22 -2 -29.5 -11t-7.5 -38v-57h57q29 0 38 7.5t11 29.5v8l14 5v-9q0 -8 -1.5 -25t-1.5 -23v-49q0 -5 1.5 -22t1.5 -26v-9z
" />
    <glyph glyph-name="comma" unicode="," horiz-adv-x="320" 
d="M232 45l-126 -126l-28 28l54 54l-44 44l72 72z" />
    <glyph glyph-name="hyphen" unicode="-" horiz-adv-x="549" 
d="M381 224l-14 6v7q-2 22 -11 29.5t-38 7.5h-88q-28 0 -37 -7.5t-11 -29.5v-7l-14 -6v9q0 9 1 26t1 22v49q0 6 -1 23t-1 25v9l14 -5v-8q2 -22 11 -29.5t37 -7.5h88q29 0 38 7.5t11 29.5v8l14 5v-9q0 -8 -1.5 -25t-1.5 -23v-49q0 -5 1.5 -22t1.5 -26v-9z" />
    <glyph glyph-name="period" unicode="." horiz-adv-x="320" 
d="M232 45l-72 -72l-72 72l72 72z" />
    <glyph glyph-name="slash" unicode="/" horiz-adv-x="350" 
d="M395 624l-382 -784l-38 -13l-13 36l383 786l37 11z" />
    <glyph glyph-name="zero" unicode="0" horiz-adv-x="838" 
d="M726 292q0 -127 -89.5 -217t-217.5 -90q-127 0 -217 90t-90 217t90 217t217 90q128 0 217.5 -89.5t89.5 -217.5zM570 486q-68 52 -151 52q-101 0 -173 -72.5t-72 -173.5q0 -85 52 -151zM665 292q0 85 -52 150l-345 -344q68 -52 151 -52q101 0 173.5 72.5t72.5 173.5z" />
    <glyph glyph-name="one" unicode="1" horiz-adv-x="446" 
d="M306 -2h-8q-8 0 -25 1t-23 1h-53q-5 0 -22 -1t-26 -1h-9l6 13h7q22 2 29.5 11.5t7.5 37.5v464q0 28 -7.5 37.5t-29.5 11.5h-7l-6 13h9q9 0 26 -1t22 -1h53q6 0 23 1t25 1h8l-5 -13h-7q-22 -2 -30 -11.5t-8 -37.5v-464q0 -28 8 -37.5t30 -11.5h7z" />
    <glyph glyph-name="two" unicode="2" horiz-adv-x="602" 
d="M498 104q0 -8 -1.5 -25t-1.5 -23v-58q-39 2 -60 2h-355l286 296q59 61 59 114t-36 90t-88 37t-89.5 -37t-37.5 -90q0 -21 34 -24h7l6 -14h-9q-8 0 -25 1t-23 1h-50q-2 25 -2 36q0 78 55.5 133.5t133.5 55.5t133.5 -55.5t55.5 -133.5q0 -42 -16 -74q-17 -37 -64 -85
l-183 -189h208q28 0 37.5 8t11.5 30v7l14 6v-9z" />
    <glyph glyph-name="three" unicode="3" horiz-adv-x="602" 
d="M514 584l-171 -226q63 -15 105 -66.5t42 -117.5q0 -78 -55.5 -133.5t-133.5 -55.5t-133.5 55.5t-55.5 133.5q0 11 2 36h50q6 0 23 1t25 1h9l-6 -14h-7q-34 -3 -34 -24q0 -52 37.5 -89.5t89.5 -37.5t89 37.5t37 89.5q0 49 -33 85q-40 43 -108 43q-33 0 -72 -11l174 231
h-196q-28 0 -37.5 -8t-11.5 -30v-7l-13 -6v9q0 9 1 26t1 22v58q39 -2 60 -2h322z" />
    <glyph glyph-name="four" unicode="4" horiz-adv-x="604" 
d="M500 94l-14 6v7q-2 22 -11 30t-37 8h-50v-85q0 -28 8 -37.5t30 -11.5h7l5 -13h-8q-8 0 -25 1t-23 1h-50q-5 0 -22 -1t-26 -1h-9l6 13h7q22 2 30 11.5t8 37.5v85h-265l327 468v-406h50q28 0 37 8t11 30v7l14 6v-9q0 -8 -1 -25t-1 -23v-50q0 -5 1 -22t1 -26v-9zM326 207
v216l-151 -216h151z" />
    <glyph glyph-name="five" unicode="5" horiz-adv-x="602" 
d="M490 174q0 -78 -55.5 -133.5t-133.5 -55.5t-133.5 55.5t-55.5 133.5q0 11 2 36h50q6 0 23 1t25 1h9l-6 -14h-7q-34 -3 -34 -24q0 -52 37.5 -89.5t89.5 -37.5t89 37.5t37 89.5t-37 89t-89 37q-70 0 -105 -31l-61 13l43 302h219q21 0 60 2v-58q0 -5 1 -22t1 -26v-9l-13 6v7
q-3 22 -12 30t-37 8h-166l-26 -187q38 27 96 27q78 0 133.5 -55t55.5 -133z" />
    <glyph glyph-name="six" unicode="6" horiz-adv-x="602" 
d="M490 174q0 -78 -55.5 -133.5t-133.5 -55.5t-133.5 55.5t-55.5 133.5q0 39 18 79q8 18 37 66l163 267h62q10 0 26 1.5t22 1.5h9l-6 -14q-4 1 -7 0q-24 -3 -32 -8q-17 -9 -37 -41l-103 -167q17 3 37 3q78 0 133.5 -55t55.5 -133zM427 174q0 52 -37 89t-89 37t-89.5 -37
t-37.5 -89t37.5 -89.5t89.5 -37.5t89 37.5t37 89.5z" />
    <glyph glyph-name="seven" unicode="7" horiz-adv-x="634" 
d="M517 584l-237 -587q-43 3 -56 3q-9 0 -28 -1t-26 -1h-8l5 13q4 -1 7 0q47 6 64 49l186 462h-254q-28 0 -37 -8t-11 -30v-7l-14 -6v9q0 9 1 26t1 22v58q39 -2 60 -2h347z" />
    <glyph glyph-name="eight" unicode="8" horiz-adv-x="611" 
d="M494 174q0 -78 -55 -133.5t-133 -55.5t-133.5 55.5t-55.5 133.5q0 105 92 162q-53 45 -53 114q0 62 44 105.5t106 43.5t105.5 -43.5t43.5 -105.5q0 -69 -53 -114q92 -56 92 -162zM394 450q0 36 -26 62t-62 26q-37 0 -62.5 -26t-25.5 -62q0 -37 25.5 -62.5t62.5 -25.5
q36 0 62 25.5t26 62.5zM432 174q0 52 -37 89t-89 37t-89.5 -37t-37.5 -89t37.5 -89.5t89.5 -37.5t89 37.5t37 89.5z" />
    <glyph glyph-name="nine" unicode="9" horiz-adv-x="602" 
d="M490 410q0 -39 -18 -78q-7 -16 -38 -67l-162 -267h-62q-10 0 -26 -1.5t-22 -1.5h-9l5 14q4 -1 8 0q23 3 32 8q16 9 36 41l104 167q-18 -3 -37 -3q-78 0 -133.5 55t-55.5 133t55.5 133.5t133.5 55.5t133.5 -55.5t55.5 -133.5zM427 410q0 52 -37 89.5t-89 37.5t-89.5 -37
t-37.5 -90q0 -52 37.5 -89t89.5 -37t89 37t37 89z" />
    <glyph glyph-name="colon" unicode=":" horiz-adv-x="320" 
d="M232 349l-72 -72l-72 72l72 72zM232 45l-72 -72l-72 72l72 72z" />
    <glyph glyph-name="semicolon" unicode=";" horiz-adv-x="320" 
d="M232 349l-72 -72l-72 72l72 72zM232 45l-126 -126l-28 28l54 54l-44 44l72 72z" />
    <glyph glyph-name="less" unicode="&#x3c;" horiz-adv-x="534" 
d="M446 446l-28 -28l-125 126l72 72l72 -72l-44 -44zM232 446l-28 -28l-126 126l72 72l72 -72l-44 -44z" />
    <glyph glyph-name="equal" unicode="=" horiz-adv-x="549" 
d="M413 434q0 -8 -1.5 -25t-1.5 -23v-49h-272v49q0 6 -1 23t-1 25v9l14 -5v-8q2 -22 11 -29.5t37 -7.5h152q29 0 38 7.5t11 29.5v8l14 5v-9zM413 168l-14 6v7q-2 22 -11 29.5t-38 7.5h-152q-28 0 -37 -7.5t-11 -29.5v-7l-14 -6v9q0 9 1 26t1 22v49h272v-49q0 -5 1.5 -22
t1.5 -26v-9z" />
    <glyph glyph-name="greater" unicode="&#x3e;" horiz-adv-x="534" 
d="M446 544l-125 -126l-28 28l53 54l-44 44l72 72zM232 544l-126 -126l-28 28l54 54l-44 44l72 72z" />
    <glyph glyph-name="question" unicode="?" horiz-adv-x="640" 
d="M490 410q0 -93 -80 -156l-107 -84v-24l-34 -35l-35 35v39l132 114q59 51 59 111q0 53 -36 90t-88 37t-89.5 -37t-37.5 -90q0 -21 34 -24h7l6 -14h-9q-8 0 -25 1t-23 1h-50q-2 25 -2 36q0 78 55.5 133.5t133.5 55.5t133.5 -55.5t55.5 -133.5zM325 29l-56 -56l-56 56l56 56
z" />
    <glyph glyph-name="at" unicode="@" horiz-adv-x="811" 
d="M699 339q0 -90 -57 -150q-52 -57 -120 -57q-19 0 -36 6q-32 -13 -67 -13q-70 0 -118.5 48.5t-48.5 118.5t48.5 118.5t118.5 48.5q41 0 72 -16l48 19v-286q47 3 79.5 48t32.5 107q0 95 -67 154t-165 58q-103 -1 -177 -74.5t-74 -176.5t74 -177t177 -74t173 62l46 1
q3 0 21 1q15 1 27 1h9l-6 -14h-7q-30 -3 -56 -27q-89 -80 -207 -80q-127 0 -217 90t-90 217q0 128 90.5 218.5t216.5 88.5q119 -2 199.5 -76.5t80.5 -183.5zM487 206v172q-27 23 -68 23q-45 0 -77 -32t-32 -77t32 -77t77 -32q41 0 68 23z" />
    <glyph glyph-name="A" unicode="A" horiz-adv-x="750" 
d="M707 16l-8 -4q-17 -6 -45 -18l-44 -21q-14 -8 -43 -23l-8 -4l-1 16q2 1 7 3q22 13 22 28q0 11 -9 32l-23 51h-362l-23 -51q-9 -21 -9 -32q0 -15 22 -28q3 -2 7 -3l-1 -16l-8 4q-16 9 -43 23l-44 21q-15 5 -45 18l-8 4l11 10l6 -4q14 -4 21 -4q19 0 34 33l261 565
l261 -565q15 -33 34 -33q7 0 21 4l6 4zM531 130l-157 354l-157 -354h314z" />
    <glyph glyph-name="B" unicode="B" horiz-adv-x="584" 
d="M486 178q0 -75 -51.5 -126.5t-129.5 -51.5h-139q-5 0 -22 -1t-26 -1h-8l5 13h7q22 2 30 11.5t8 37.5v464q0 28 -8 37.5t-30 11.5h-7l-5 13h8q9 0 26 -1t22 -1h56q12 0 31 1h30q74 0 120 -36.5t46 -99.5q0 -78 -59 -113q41 -19 67 -59q29 -44 29 -99zM386 441
q0 37 -24.5 63t-62.5 26h-77v-178h77q38 0 62.5 26t24.5 63zM422 178q0 49 -34.5 84t-85.5 35h-80v-238h80q51 0 85.5 34.5t34.5 84.5z" />
    <glyph glyph-name="C" unicode="C" horiz-adv-x="692" 
d="M593 448h-16q-5 32 -31 52q-63 36 -127 36q-100 0 -172 -71.5t-72 -172.5q0 -100 72 -172t172 -72q66 0 134 42q20 22 25 50h12v-8q0 -10 -1.5 -24.5t-1.5 -19.5l3 -51q-76 -52 -171 -52q-127 0 -217 90t-90 217t90 217t217 90q96 0 171 -52v-47q0 -4 1.5 -18.5
t1.5 -25.5v-8z" />
    <glyph glyph-name="D" unicode="D" horiz-adv-x="746" 
d="M634 294q0 -125 -87 -210t-213 -85h-58q-36 1 -38 1h-72q-5 0 -22 -1t-26 -1h-8l5 13h7q22 2 30 11.5t8 37.5v464q0 28 -8 37.5t-30 11.5h-7l-5 13h8q9 0 26 -1t22 -1h60q12 0 47 1t61 1q124 0 212 -84.5t88 -207.5zM571 291q0 98 -68.5 167.5t-165.5 69.5h-113v-472h113
q97 0 165.5 69t68.5 166z" />
    <glyph glyph-name="E" unicode="E" horiz-adv-x="662" 
d="M509 -50l-14 5v7q-2 22 -11 30t-38 8h-194l-56 -56v335q-21 -1 -28 -9t-10 -28v-8l-13 -5v9q0 9 1 26t1 22v49q0 6 -1 23t-1 25v9l13 -6v-7q3 -20 10 -28t28 -9v242h250q29 0 38 8t11 30v7l14 5v-8q0 -8 -1.5 -25t-1.5 -23v-50q0 -5 1.5 -22t1.5 -26v-9l-14 6v7
q-2 22 -11 30t-38 8h-188v-180h184q28 0 37 7.5t11 29.5v7l14 6v-9q0 -8 -1 -25t-1 -23v-49q0 -5 1 -22t1 -26v-9l-14 5v8q-2 22 -11 29.5t-37 7.5h-184v-217h188q29 0 38 8t11 30v7l14 6v-9q0 -8 -1.5 -25t-1.5 -23v-50q0 -5 1.5 -22.5t1.5 -25.5v-8z" />
    <glyph glyph-name="F" unicode="F" horiz-adv-x="598" 
d="M509 471l-14 6v7q-2 22 -11 30t-38 8h-188v-180h184q28 0 37 7.5t11 29.5v7l14 6v-9q0 -8 -1 -25t-1 -23v-49q0 -5 1 -22t1 -26v-9l-14 5v8q-2 22 -11 29.5t-37 7.5h-184v-273l-62 -62v335q-21 -1 -28 -9t-10 -28v-8l-13 -5v9q0 9 1 26t1 22v49q0 6 -1 23t-1 25v9l13 -6
v-7q3 -20 10 -28t28 -9v242h250q29 0 38 8t11 30v7l14 5v-8q0 -8 -1.5 -25t-1.5 -23v-50q0 -5 1.5 -22t1.5 -26v-9z" />
    <glyph glyph-name="G" unicode="G" horiz-adv-x="720" 
d="M601 46q-95 -61 -182 -61q-127 0 -217 90t-90 217t90 217t217 90q96 0 171 -52v-47q0 -4 1.5 -18.5t1.5 -25.5v-8h-16q-5 32 -31 52q-63 36 -127 36q-100 0 -172 -71.5t-72 -172.5q0 -100 72 -172t172 -72q58 0 120 34v174h-55q-28 0 -37.5 -8t-11.5 -30v-7l-13 -5v8
q0 9 1 26t1 22v12l-2 43h179v-271z" />
    <glyph glyph-name="H" unicode="H" horiz-adv-x="694" 
d="M585 -2h-9q-8 0 -25 1t-23 1h-50q-5 0 -22 -1t-26 -1h-8l5 13h7q22 2 30 11.5t8 37.5v215h-250v-215q0 -28 8 -37.5t30 -11.5h7l6 -13h-9q-8 0 -25 1t-23 1h-50q-5 0 -22 -1t-26 -1h-8l5 13h7q22 2 30 11.5t8 37.5v464q0 28 -8 37.5t-30 11.5h-7l-5 13h8q9 0 26 -1t22 -1
h50q6 0 23 1t25 1h9l-6 -13h-7q-22 -2 -30 -11.5t-8 -37.5v-194h250v194q0 28 -8 37.5t-30 11.5h-7l-5 13h8q9 0 26 -1t22 -1h50q6 0 23 1t25 1h9l-6 -13h-7q-22 -2 -30 -11.5t-8 -37.5v-464q0 -28 8 -37.5t30 -11.5h7z" />
    <glyph glyph-name="I" unicode="I" horiz-adv-x="414" 
d="M290 -2h-8q-8 0 -25 1t-23 1h-53q-5 0 -22 -1t-26 -1h-9l6 13h7q22 2 29.5 11.5t7.5 37.5v464q0 28 -7.5 37.5t-29.5 11.5h-7l-6 13h9q9 0 26 -1t22 -1h53q6 0 23 1t25 1h8l-5 -13h-7q-22 -2 -30 -11.5t-8 -37.5v-464q0 -28 8 -37.5t30 -11.5h7z" />
    <glyph glyph-name="J" unicode="J" horiz-adv-x="414" 
d="M289 586l-6 -13h-7q-22 -2 -30 -11.5t-8 -37.5v-674l-62 -104v778q0 28 -8 37.5t-30 11.5h-7l-5 13h8q9 0 26 -1t22 -1h50q6 0 23 1t25 1h9z" />
    <glyph glyph-name="K" unicode="K" horiz-adv-x="647" 
d="M596 -2h-9q-6 0 -22 1t-26 1q-12 0 -54 -3l-263 262v-199q0 -28 8 -37.5t30 -11.5h7l6 -13h-9q-8 0 -25 1t-23 1h-50q-5 0 -22 -1t-26 -1h-8l5 13h7q22 2 30 11.5t8 37.5v464q0 28 -8 37.5t-30 11.5h-7l-5 13h8q9 0 26 -1t22 -1h50q6 0 23 1t25 1h9l-6 -13h-7
q-22 -2 -30 -11.5t-8 -37.5v-138l150 135q23 21 23 34q0 10 -12 27l-5 4l7 14l6 -6q11 -14 31 -38l28 -33q10 -9 34 -33l6 -8l-14 -4l-5 5q-15 15 -26 15q-13 0 -35 -20l-167 -151l267 -267q31 -31 43 -39t30 -10q3 -1 7 0z" />
    <glyph glyph-name="L" unicode="L" horiz-adv-x="576" 
d="M490 -50l-13 5v7q-2 22 -11.5 30t-37.5 8h-212l-56 -56v580q0 28 -8 37.5t-30 11.5h-7l-5 13h8q9 0 26 -1t22 -1h50q6 0 23 1t25 1h9l-6 -13h-7q-22 -2 -30 -11.5t-8 -37.5v-462h206q28 0 37.5 8t11.5 30v7l13 6v-9q0 -8 -1 -25t-1 -23v-50q0 -5 1 -22.5t1 -25.5v-8z" />
    <glyph glyph-name="M" unicode="M" horiz-adv-x="900" 
d="M790 -2h-8q-8 0 -25 1t-23 1h-50q-5 0 -22 -1t-26 -1h-9l6 13h7q22 2 30 11.5t8 37.5v462h-196v-462q0 -28 7.5 -37.5t29.5 -11.5h7l6 -13h-9q-8 0 -25 1t-23 1h-49q-5 0 -22 -1t-26 -1h-9l5 13h8q22 2 29.5 11.5t7.5 37.5v462h-196v-462q0 -28 8 -37.5t30 -11.5h7l6 -13
h-9q-8 0 -25 1t-23 1h-50q-5 0 -22 -1t-26 -1h-9l6 13h7q22 2 30 11.5t8 37.5v464q0 28 -8 37.5t-30 11.5h-7l-6 13h9q9 0 26 -1t22 -1h252q-1 23 -9 31t-28 10h-8l-5 13h9q9 0 26 -1t22 -1h49q6 0 23 1t25 1h9l-6 -13h-7q-20 -2 -28 -10t-9 -31h252q6 0 23 1t25 1h8l-5 -13
h-7q-22 -2 -30 -11.5t-8 -37.5v-464q0 -28 8 -37.5t30 -11.5h7z" />
    <glyph glyph-name="N" unicode="N" horiz-adv-x="782" 
d="M673 -2h-9q-8 0 -25 1t-23 1h-50q-5 0 -22 -1t-26 -1h-8l5 13h7q22 2 30 11.5t8 37.5v6l-338 360v-366q0 -28 8 -37.5t30 -11.5h7l6 -13h-9q-8 0 -25 1t-23 1h-50q-5 0 -22 -1t-26 -1h-8l5 13h7q22 2 30 11.5t8 37.5v464q0 28 -8 37.5t-30 11.5h-7l-5 13h8q9 0 26 -1
t22 -1h50q6 0 23 1t25 1h9l-6 -13h-7q-22 -2 -30 -11.5t-8 -37.5v-8l338 -358v366q0 28 -8 37.5t-30 11.5h-7l-5 13h8q9 0 26 -1t22 -1h50q6 0 23 1t25 1h9l-6 -13h-7q-22 -2 -30 -11.5t-8 -37.5v-464q0 -28 8 -37.5t30 -11.5h7z" />
    <glyph glyph-name="O" unicode="O" horiz-adv-x="838" 
d="M726 292q0 -127 -89.5 -217t-217.5 -90q-127 0 -217 90t-90 217t90 217t217 90q128 0 217.5 -89.5t89.5 -217.5zM663 319q-10 86 -70.5 146.5t-146.5 70.5v-217h217zM392 319v217q-85 -10 -146 -70.5t-71 -146.5h217zM663 265h-217v-217q85 10 146 71t71 146zM392 48v217
h-217q10 -85 71 -146t146 -71z" />
    <glyph glyph-name="P" unicode="P" horiz-adv-x="560" 
d="M486 411q0 -75 -54 -128t-129 -53h-81v-170q0 -28 8 -37.5t30 -11.5h7l6 -13h-9q-8 0 -25 1t-23 1h-50q-5 0 -22 -1t-26 -1h-8l5 13h7q22 2 30 11.5t8 37.5v464q0 28 -8 37.5t-30 11.5h-7l-5 13h8q9 0 26 -1t22 -1h137q73 0 128 -50t55 -123zM421 410q0 51 -34.5 85
t-87.5 34h-77v-243h77q53 0 87.5 36t34.5 88z" />
    <glyph glyph-name="Q" unicode="Q" horiz-adv-x="838" 
d="M726 292q0 -119 -79.5 -206.5t-196.5 -99.5v-51q0 -28 8 -37t30 -12h7l6 -13h-9q-8 0 -25 1t-23 1h-50q-5 0 -22 -1t-26 -1h-8l5 13h7q22 3 30 12t8 37v51q-117 12 -196.5 99.5t-79.5 206.5q0 127 90 217t217 90q128 0 217.5 -89.5t89.5 -217.5zM665 292
q0 101 -72.5 173.5t-173.5 72.5t-173 -72.5t-72 -173.5q0 -93 61.5 -162.5t152.5 -81.5v142q0 28 -8 37t-30 11h-7l-5 14h8q9 0 26 -1t22 -1h50q6 0 23 1t25 1h9l-6 -14h-7q-22 -2 -30 -11t-8 -37v-142q91 12 153 81.5t62 162.5z" />
    <glyph glyph-name="R" unicode="R" horiz-adv-x="680" 
d="M650 -2h-8q-7 0 -23 1t-25 1q-13 0 -55 -3l-261 261h-56v-198q0 -28 8 -37.5t30 -11.5h7l6 -13h-9q-8 0 -25 1t-23 1h-50q-5 0 -22 -1t-26 -1h-8l5 13h7q22 2 30 11.5t8 37.5v464q0 28 -8 37.5t-30 11.5h-7l-5 13h8q9 0 26 -1t22 -1h137q72 0 121.5 -44.5t49.5 -114.5
q0 -52 -31.5 -96.5t-84.5 -62.5l207 -206q31 -31 43 -39t30 -10q3 -1 7 0zM412 424q0 45 -30.5 75t-82.5 30h-77v-215h77q50 0 81.5 31.5t31.5 78.5z" />
    <glyph glyph-name="S" unicode="S" horiz-adv-x="580" 
d="M470 153q0 -73 -56 -119.5t-134 -46.5q-81 0 -132 55q-34 37 -42 77l82 36l6 -10q-21 -13 -21 -27q0 -20 28 -44q34 -30 82 -30q56 0 90.5 32t34.5 78q0 54 -86 101l-92 50q-58 32 -81 67q-19 30 -19 74q0 63 47 104t111 41q112 0 162 -97l-68 -61l-8 13q16 15 16 28
q0 22 -29.5 41.5t-66.5 19.5q-51 0 -78 -28q-25 -24 -25 -61q0 -48 75 -88l108 -58q96 -52 96 -147z" />
    <glyph glyph-name="T" unicode="T" horiz-adv-x="731" 
d="M659 471l-13 6v7q-3 22 -12 30t-37 8h-200v-462q0 -28 7.5 -37.5t29.5 -11.5h8l5 -13h-9q-8 0 -25 1t-23 1h-49q-5 0 -22 -1t-26 -1h-9l6 13h7q22 2 29.5 11.5t7.5 37.5v462h-200q-28 0 -37 -8t-11 -30v-7l-14 -6v9q0 9 1 26t1 22v50q0 6 -1 23t-1 25v8l14 -5v-7
q2 -22 11 -30t37 -8h463q28 0 37 8t12 30v7l13 5v-8q0 -8 -1 -25t-1 -23v-50q0 -5 1 -22t1 -26v-9z" />
    <glyph glyph-name="U" unicode="U" horiz-adv-x="861" 
d="M789 586l-6 -13h-7q-22 -2 -30 -11.5t-8 -37.5v-232q0 -127 -89.5 -217t-217.5 -90q-127 0 -217 90t-90 217v232q0 28 -8 37.5t-30 11.5h-7l-5 13h8q9 0 26 -1t22 -1h49q6 0 23 1t25 1h9l-6 -13h-7q-22 -2 -29.5 -11.5t-7.5 -37.5v-232q0 -101 72 -173.5t173 -72.5
t173.5 72.5t72.5 173.5v232q0 28 -8 37.5t-30 11.5h-7l-6 13h9q9 0 26 -1t22 -1h49q6 0 23 1t25 1h9z" />
    <glyph glyph-name="V" unicode="V" horiz-adv-x="797" 
d="M756 586l-6 -13h-7q-21 -2 -32 -12t-25 -37l-288 -554l-288 554q-14 27 -25 37t-32 12h-7l-6 13h9q9 0 26 -1t22 -1h49q6 0 23 1t25 1h9l-5 -13h-8q-24 -3 -24 -16q0 -10 12 -33l220 -422l220 422q12 22 12 32q0 14 -24 17h-8l-5 13h9q9 0 26 -1t22 -1h49q6 0 23 1t25 1
h9z" />
    <glyph glyph-name="W" unicode="W" horiz-adv-x="1040" 
d="M1006 586l-6 -13h-7q-33 -4 -57 -49l-289 -554l-129 248l-130 -248l-288 554q-24 45 -57 49h-7l-6 13h9q9 0 26 -1t22 -1h50q6 0 23 1t25 1h9l-6 -13h-7q-24 -3 -24 -16q0 -10 12 -33l219 -422l95 183l-124 239q-24 45 -57 49h-7l-5 13h8q9 0 26 -1t22 -1h50q6 0 23 1
t25 1h9l-6 -13h-7q-24 -3 -24 -16q0 -10 12 -33l90 -174l91 174q11 21 11 32q0 14 -24 17h-7l-6 13h9q9 0 26 -1t22 -1h50q6 0 23 1t25 1h8l-5 -13h-7q-33 -4 -57 -49l-125 -239l95 -183l221 422q11 22 11 32q0 14 -24 17h-7l-6 13h9q9 0 26 -1t22 -1h50q6 0 23 1t25 1h9z
" />
    <glyph glyph-name="X" unicode="X" horiz-adv-x="840" 
d="M751 78l-6 -7q-13 -12 -35 -32l-36 -35q-10 -12 -32 -35l-6 -7l-6 14q2 1 5 5q13 16 13 26q0 14 -21 35l-205 205l-206 -205q-21 -21 -21 -34q0 -11 13 -27q2 -3 5 -5l-6 -14l-6 7q-18 21 -32 35l-35 35q-12 11 -36 32l-6 7l14 5q1 -1 4 -5q17 -13 27 -13q13 0 34 21
l206 206l-206 206q-21 21 -34 21q-10 0 -27 -13q-2 -3 -4 -5l-14 5l6 7q14 12 36 32l35 35q14 14 32 35l6 7l6 -14l-5 -5q-13 -16 -13 -27q0 -13 21 -34l206 -205l205 205q21 21 21 35q0 10 -13 26q-2 3 -5 5l6 14l6 -7q12 -13 32 -35l36 -35q12 -10 35 -32l6 -7l-13 -5
l-5 5q-17 13 -27 13q-13 0 -34 -21l-206 -206l206 -206q21 -21 34 -21q10 0 27 13q2 3 5 5z" />
    <glyph glyph-name="Y" unicode="Y" horiz-adv-x="784" 
d="M718 506l-13 -5l-5 5q-17 13 -27 13q-13 0 -34 -21l-219 -220v-218q0 -28 8 -37.5t30 -11.5h7l5 -13h-8q-8 0 -25 1t-23 1h-50q-5 0 -22 -1t-26 -1h-9l6 13h7q22 2 30 11.5t8 37.5v218l-220 220q-21 21 -34 21q-9 0 -26 -13l-5 -5l-14 5l7 7q6 6 18.5 17t16.5 15l35 35
q14 14 32 35l6 7l6 -14l-5 -5q-13 -17 -13 -27q0 -13 21 -34l206 -205l205 205q21 21 21 35q0 10 -13 26q-2 3 -4 5l5 14l7 -7q12 -13 32 -35l35 -35q12 -10 35 -32z" />
    <glyph glyph-name="Z" unicode="Z" horiz-adv-x="670" 
d="M566 -50l-14 5v7q-2 22 -11.5 30t-37.5 8h-384l327 522h-268q-28 0 -37 -8t-11 -30v-7l-14 -6v9q0 9 1 26t1 22v50q0 6 -1 23t-1 25v8l14 -5v-7q2 -22 11 -30t37 -8h382l-326 -522h269q28 0 37.5 8t11.5 30v7l14 6v-9q0 -8 -1.5 -25t-1.5 -23v-50q0 -5 1.5 -22.5
t1.5 -25.5v-8z" />
    <glyph glyph-name="bracketleft" unicode="[" horiz-adv-x="480" 
d="M375 -108h-183v791h183v-29h-127v-732h127v-30z" />
    <glyph glyph-name="backslash" unicode="\" horiz-adv-x="45" 
 />
    <glyph glyph-name="bracketright" unicode="]" horiz-adv-x="480" 
d="M288 -108h-183v30h127v732h-127v29h183v-791z" />
    <glyph glyph-name="asciicircum" unicode="^" horiz-adv-x="478" 
d="M342 482h-44l-62 44l-62 -44h-44l89 93h34z" />
    <glyph glyph-name="underscore" unicode="_" horiz-adv-x="437" 
d="M440 -173h-444v33h444v-33z" />
    <glyph glyph-name="grave" unicode="`" horiz-adv-x="320" 
d="M234 482h-45l-130 93h85z" />
    <glyph glyph-name="a" unicode="a" horiz-adv-x="750" 
d="M707 16l-8 -4q-17 -6 -45 -18l-44 -21q-14 -8 -43 -23l-8 -4l-1 16q2 1 7 3q22 13 22 28q0 11 -9 32l-23 51h-362l-23 -51q-9 -21 -9 -32q0 -15 22 -28q3 -2 7 -3l-1 -16l-8 4q-16 9 -43 23l-44 21q-15 5 -45 18l-8 4l11 10l6 -4q14 -4 21 -4q19 0 34 33l261 565
l261 -565q15 -33 34 -33q7 0 21 4l6 4zM531 130l-157 354l-157 -354h314z" />
    <glyph glyph-name="b" unicode="b" horiz-adv-x="584" 
d="M486 178q0 -75 -51.5 -126.5t-129.5 -51.5h-139q-5 0 -22 -1t-26 -1h-8l5 13h7q22 2 30 11.5t8 37.5v464q0 28 -8 37.5t-30 11.5h-7l-5 13h8q9 0 26 -1t22 -1h56q12 0 31 1h30q74 0 120 -36.5t46 -99.5q0 -78 -59 -113q41 -19 67 -59q29 -44 29 -99zM386 441
q0 37 -24.5 63t-62.5 26h-77v-178h77q38 0 62.5 26t24.5 63zM422 178q0 49 -34.5 84t-85.5 35h-80v-238h80q51 0 85.5 34.5t34.5 84.5z" />
    <glyph glyph-name="c" unicode="c" horiz-adv-x="692" 
d="M593 448h-16q-5 32 -31 52q-63 36 -127 36q-100 0 -172 -71.5t-72 -172.5q0 -100 72 -172t172 -72q66 0 134 42q20 22 25 50h12v-8q0 -10 -1.5 -24.5t-1.5 -19.5l3 -51q-76 -52 -171 -52q-127 0 -217 90t-90 217t90 217t217 90q96 0 171 -52v-47q0 -4 1.5 -18.5
t1.5 -25.5v-8z" />
    <glyph glyph-name="d" unicode="d" horiz-adv-x="746" 
d="M634 294q0 -125 -87 -210t-213 -85h-58q-36 1 -38 1h-72q-5 0 -22 -1t-26 -1h-8l5 13h7q22 2 30 11.5t8 37.5v464q0 28 -8 37.5t-30 11.5h-7l-5 13h8q9 0 26 -1t22 -1h60q12 0 47 1t61 1q124 0 212 -84.5t88 -207.5zM571 291q0 98 -68.5 167.5t-165.5 69.5h-113v-472h113
q97 0 165.5 69t68.5 166z" />
    <glyph glyph-name="e" unicode="e" horiz-adv-x="662" 
d="M509 -50l-14 5v7q-2 22 -11 30t-38 8h-194l-56 -56v335q-21 -1 -28 -9t-10 -28v-8l-13 -5v9q0 9 1 26t1 22v49q0 6 -1 23t-1 25v9l13 -6v-7q3 -20 10 -28t28 -9v242h250q29 0 38 8t11 30v7l14 5v-8q0 -8 -1.5 -25t-1.5 -23v-50q0 -5 1.5 -22t1.5 -26v-9l-14 6v7
q-2 22 -11 30t-38 8h-188v-180h184q28 0 37 7.5t11 29.5v7l14 6v-9q0 -8 -1 -25t-1 -23v-49q0 -5 1 -22t1 -26v-9l-14 5v8q-2 22 -11 29.5t-37 7.5h-184v-217h188q29 0 38 8t11 30v7l14 6v-9q0 -8 -1.5 -25t-1.5 -23v-50q0 -5 1.5 -22.5t1.5 -25.5v-8z" />
    <glyph glyph-name="f" unicode="f" horiz-adv-x="598" 
d="M509 471l-14 6v7q-2 22 -11 30t-38 8h-188v-180h184q28 0 37 7.5t11 29.5v7l14 6v-9q0 -8 -1 -25t-1 -23v-49q0 -5 1 -22t1 -26v-9l-14 5v8q-2 22 -11 29.5t-37 7.5h-184v-273l-62 -62v335q-21 -1 -28 -9t-10 -28v-8l-13 -5v9q0 9 1 26t1 22v49q0 6 -1 23t-1 25v9l13 -6
v-7q3 -20 10 -28t28 -9v242h250q29 0 38 8t11 30v7l14 5v-8q0 -8 -1.5 -25t-1.5 -23v-50q0 -5 1.5 -22t1.5 -26v-9z" />
    <glyph glyph-name="g" unicode="g" horiz-adv-x="720" 
d="M601 46q-95 -61 -182 -61q-127 0 -217 90t-90 217t90 217t217 90q96 0 171 -52v-47q0 -4 1.5 -18.5t1.5 -25.5v-8h-16q-5 32 -31 52q-63 36 -127 36q-100 0 -172 -71.5t-72 -172.5q0 -100 72 -172t172 -72q58 0 120 34v174h-55q-28 0 -37.5 -8t-11.5 -30v-7l-13 -5v8
q0 9 1 26t1 22v12l-2 43h179v-271z" />
    <glyph glyph-name="h" unicode="h" horiz-adv-x="694" 
d="M585 -2h-9q-8 0 -25 1t-23 1h-50q-5 0 -22 -1t-26 -1h-8l5 13h7q22 2 30 11.5t8 37.5v215h-250v-215q0 -28 8 -37.5t30 -11.5h7l6 -13h-9q-8 0 -25 1t-23 1h-50q-5 0 -22 -1t-26 -1h-8l5 13h7q22 2 30 11.5t8 37.5v464q0 28 -8 37.5t-30 11.5h-7l-5 13h8q9 0 26 -1t22 -1
h50q6 0 23 1t25 1h9l-6 -13h-7q-22 -2 -30 -11.5t-8 -37.5v-194h250v194q0 28 -8 37.5t-30 11.5h-7l-5 13h8q9 0 26 -1t22 -1h50q6 0 23 1t25 1h9l-6 -13h-7q-22 -2 -30 -11.5t-8 -37.5v-464q0 -28 8 -37.5t30 -11.5h7z" />
    <glyph glyph-name="i" unicode="i" horiz-adv-x="414" 
d="M290 -2h-8q-8 0 -25 1t-23 1h-53q-5 0 -22 -1t-26 -1h-9l6 13h7q22 2 29.5 11.5t7.5 37.5v464q0 28 -7.5 37.5t-29.5 11.5h-7l-6 13h9q9 0 26 -1t22 -1h53q6 0 23 1t25 1h8l-5 -13h-7q-22 -2 -30 -11.5t-8 -37.5v-464q0 -28 8 -37.5t30 -11.5h7z" />
    <glyph glyph-name="j" unicode="j" horiz-adv-x="414" 
d="M289 586l-6 -13h-7q-22 -2 -30 -11.5t-8 -37.5v-674l-62 -104v778q0 28 -8 37.5t-30 11.5h-7l-5 13h8q9 0 26 -1t22 -1h50q6 0 23 1t25 1h9z" />
    <glyph glyph-name="k" unicode="k" horiz-adv-x="647" 
d="M596 -2h-9q-6 0 -22 1t-26 1q-12 0 -54 -3l-263 262v-199q0 -28 8 -37.5t30 -11.5h7l6 -13h-9q-8 0 -25 1t-23 1h-50q-5 0 -22 -1t-26 -1h-8l5 13h7q22 2 30 11.5t8 37.5v464q0 28 -8 37.5t-30 11.5h-7l-5 13h8q9 0 26 -1t22 -1h50q6 0 23 1t25 1h9l-6 -13h-7
q-22 -2 -30 -11.5t-8 -37.5v-138l150 135q23 21 23 34q0 10 -12 27l-5 4l7 14l6 -6q11 -14 31 -38l28 -33q10 -9 34 -33l6 -8l-14 -4l-5 5q-15 15 -26 15q-13 0 -35 -20l-167 -151l267 -267q31 -31 43 -39t30 -10q3 -1 7 0z" />
    <glyph glyph-name="l" unicode="l" horiz-adv-x="576" 
d="M490 -50l-13 5v7q-2 22 -11.5 30t-37.5 8h-212l-56 -56v580q0 28 -8 37.5t-30 11.5h-7l-5 13h8q9 0 26 -1t22 -1h50q6 0 23 1t25 1h9l-6 -13h-7q-22 -2 -30 -11.5t-8 -37.5v-462h206q28 0 37.5 8t11.5 30v7l13 6v-9q0 -8 -1 -25t-1 -23v-50q0 -5 1 -22.5t1 -25.5v-8z" />
    <glyph glyph-name="m" unicode="m" horiz-adv-x="900" 
d="M790 -2h-8q-8 0 -25 1t-23 1h-50q-5 0 -22 -1t-26 -1h-9l6 13h7q22 2 30 11.5t8 37.5v462h-196v-462q0 -28 7.5 -37.5t29.5 -11.5h7l6 -13h-9q-8 0 -25 1t-23 1h-49q-5 0 -22 -1t-26 -1h-9l5 13h8q22 2 29.5 11.5t7.5 37.5v462h-196v-462q0 -28 8 -37.5t30 -11.5h7l6 -13
h-9q-8 0 -25 1t-23 1h-50q-5 0 -22 -1t-26 -1h-9l6 13h7q22 2 30 11.5t8 37.5v464q0 28 -8 37.5t-30 11.5h-7l-6 13h9q9 0 26 -1t22 -1h252q-1 23 -9 31t-28 10h-8l-5 13h9q9 0 26 -1t22 -1h49q6 0 23 1t25 1h9l-6 -13h-7q-20 -2 -28 -10t-9 -31h252q6 0 23 1t25 1h8l-5 -13
h-7q-22 -2 -30 -11.5t-8 -37.5v-464q0 -28 8 -37.5t30 -11.5h7z" />
    <glyph glyph-name="n" unicode="n" horiz-adv-x="782" 
d="M673 -2h-9q-8 0 -25 1t-23 1h-50q-5 0 -22 -1t-26 -1h-8l5 13h7q22 2 30 11.5t8 37.5v6l-338 360v-366q0 -28 8 -37.5t30 -11.5h7l6 -13h-9q-8 0 -25 1t-23 1h-50q-5 0 -22 -1t-26 -1h-8l5 13h7q22 2 30 11.5t8 37.5v464q0 28 -8 37.5t-30 11.5h-7l-5 13h8q9 0 26 -1
t22 -1h50q6 0 23 1t25 1h9l-6 -13h-7q-22 -2 -30 -11.5t-8 -37.5v-8l338 -358v366q0 28 -8 37.5t-30 11.5h-7l-5 13h8q9 0 26 -1t22 -1h50q6 0 23 1t25 1h9l-6 -13h-7q-22 -2 -30 -11.5t-8 -37.5v-464q0 -28 8 -37.5t30 -11.5h7z" />
    <glyph glyph-name="o" unicode="o" horiz-adv-x="838" 
d="M726 292q0 -127 -89.5 -217t-217.5 -90q-127 0 -217 90t-90 217t90 217t217 90q128 0 217.5 -89.5t89.5 -217.5zM663 319q-10 86 -70.5 146.5t-146.5 70.5v-217h217zM392 319v217q-85 -10 -146 -70.5t-71 -146.5h217zM663 265h-217v-217q85 10 146 71t71 146zM392 48v217
h-217q10 -85 71 -146t146 -71z" />
    <glyph glyph-name="p" unicode="p" horiz-adv-x="560" 
d="M486 411q0 -75 -54 -128t-129 -53h-81v-170q0 -28 8 -37.5t30 -11.5h7l6 -13h-9q-8 0 -25 1t-23 1h-50q-5 0 -22 -1t-26 -1h-8l5 13h7q22 2 30 11.5t8 37.5v464q0 28 -8 37.5t-30 11.5h-7l-5 13h8q9 0 26 -1t22 -1h137q73 0 128 -50t55 -123zM421 410q0 51 -34.5 85
t-87.5 34h-77v-243h77q53 0 87.5 36t34.5 88z" />
    <glyph glyph-name="q" unicode="q" horiz-adv-x="838" 
d="M726 292q0 -119 -79.5 -206.5t-196.5 -99.5v-51q0 -28 8 -37t30 -12h7l6 -13h-9q-8 0 -25 1t-23 1h-50q-5 0 -22 -1t-26 -1h-8l5 13h7q22 3 30 12t8 37v51q-117 12 -196.5 99.5t-79.5 206.5q0 127 90 217t217 90q128 0 217.5 -89.5t89.5 -217.5zM665 292
q0 101 -72.5 173.5t-173.5 72.5t-173 -72.5t-72 -173.5q0 -93 61.5 -162.5t152.5 -81.5v142q0 28 -8 37t-30 11h-7l-5 14h8q9 0 26 -1t22 -1h50q6 0 23 1t25 1h9l-6 -14h-7q-22 -2 -30 -11t-8 -37v-142q91 12 153 81.5t62 162.5z" />
    <glyph glyph-name="r" unicode="r" horiz-adv-x="680" 
d="M650 -2h-8q-7 0 -23 1t-25 1q-13 0 -55 -3l-261 261h-56v-198q0 -28 8 -37.5t30 -11.5h7l6 -13h-9q-8 0 -25 1t-23 1h-50q-5 0 -22 -1t-26 -1h-8l5 13h7q22 2 30 11.5t8 37.5v464q0 28 -8 37.5t-30 11.5h-7l-5 13h8q9 0 26 -1t22 -1h137q72 0 121.5 -44.5t49.5 -114.5
q0 -52 -31.5 -96.5t-84.5 -62.5l207 -206q31 -31 43 -39t30 -10q3 -1 7 0zM412 424q0 45 -30.5 75t-82.5 30h-77v-215h77q50 0 81.5 31.5t31.5 78.5z" />
    <glyph glyph-name="s" unicode="s" horiz-adv-x="580" 
d="M470 153q0 -73 -56 -119.5t-134 -46.5q-81 0 -132 55q-34 37 -42 77l82 36l6 -10q-21 -13 -21 -27q0 -20 28 -44q34 -30 82 -30q56 0 90.5 32t34.5 78q0 54 -86 101l-92 50q-58 32 -81 67q-19 30 -19 74q0 63 47 104t111 41q112 0 162 -97l-68 -61l-8 13q16 15 16 28
q0 22 -29.5 41.5t-66.5 19.5q-51 0 -78 -28q-25 -24 -25 -61q0 -48 75 -88l108 -58q96 -52 96 -147z" />
    <glyph glyph-name="t" unicode="t" horiz-adv-x="795" 
d="M691 210l-13 6v7q-3 22 -12 30t-37 8h-200v-201q0 -28 7.5 -37.5t29.5 -11.5h8l5 -13h-9q-8 0 -25 1t-23 1h-49q-5 0 -22 -1t-26 -1h-9l6 13h7q22 2 29.5 11.5t7.5 37.5v201h-200q-28 0 -37 -8t-11 -30v-7l-14 -6v9q0 9 1 26t1 22v50q0 6 -1 23t-1 25v9l14 -6v-7
q2 -22 11 -30t37 -8h200v201q0 28 -7.5 37.5t-29.5 11.5h-7l-6 13h9q9 0 26 -1t22 -1h49q6 0 23 1t25 1h9l-5 -13h-8q-22 -2 -29.5 -11.5t-7.5 -37.5v-201h200q28 0 37 8t12 30v7l13 6v-9q0 -8 -1 -25t-1 -23v-50q0 -5 1 -22t1 -26v-9z" />
    <glyph glyph-name="u" unicode="u" horiz-adv-x="861" 
d="M789 586l-6 -13h-7q-22 -2 -30 -11.5t-8 -37.5v-232q0 -127 -89.5 -217t-217.5 -90q-127 0 -217 90t-90 217v232q0 28 -8 37.5t-30 11.5h-7l-5 13h8q9 0 26 -1t22 -1h49q6 0 23 1t25 1h9l-6 -13h-7q-22 -2 -29.5 -11.5t-7.5 -37.5v-232q0 -101 72 -173.5t173 -72.5
t173.5 72.5t72.5 173.5v232q0 28 -8 37.5t-30 11.5h-7l-6 13h9q9 0 26 -1t22 -1h49q6 0 23 1t25 1h9z" />
    <glyph glyph-name="v" unicode="v" horiz-adv-x="797" 
d="M756 586l-6 -13h-7q-21 -2 -32 -12t-25 -37l-288 -554l-288 554q-14 27 -25 37t-32 12h-7l-6 13h9q9 0 26 -1t22 -1h49q6 0 23 1t25 1h9l-5 -13h-8q-24 -3 -24 -16q0 -10 12 -33l220 -422l220 422q12 22 12 32q0 14 -24 17h-8l-5 13h9q9 0 26 -1t22 -1h49q6 0 23 1t25 1
h9z" />
    <glyph glyph-name="w" unicode="w" horiz-adv-x="1040" 
d="M1006 586l-6 -13h-7q-33 -4 -57 -49l-289 -554l-129 248l-130 -248l-288 554q-24 45 -57 49h-7l-6 13h9q9 0 26 -1t22 -1h50q6 0 23 1t25 1h9l-6 -13h-7q-24 -3 -24 -16q0 -10 12 -33l219 -422l95 183l-124 239q-24 45 -57 49h-7l-5 13h8q9 0 26 -1t22 -1h50q6 0 23 1
t25 1h9l-6 -13h-7q-24 -3 -24 -16q0 -10 12 -33l90 -174l91 174q11 21 11 32q0 14 -24 17h-7l-6 13h9q9 0 26 -1t22 -1h50q6 0 23 1t25 1h8l-5 -13h-7q-33 -4 -57 -49l-125 -239l95 -183l221 422q11 22 11 32q0 14 -24 17h-7l-6 13h9q9 0 26 -1t22 -1h50q6 0 23 1t25 1h9z
" />
    <glyph glyph-name="x" unicode="x" horiz-adv-x="840" 
d="M751 78l-6 -7q-13 -12 -35 -32l-36 -35q-10 -12 -32 -35l-6 -7l-6 14q2 1 5 5q13 16 13 26q0 14 -21 35l-205 205l-206 -205q-21 -21 -21 -34q0 -11 13 -27q2 -3 5 -5l-6 -14l-6 7q-18 21 -32 35l-35 35q-12 11 -36 32l-6 7l14 5q1 -1 4 -5q17 -13 27 -13q13 0 34 21
l206 206l-206 206q-21 21 -34 21q-10 0 -27 -13q-2 -3 -4 -5l-14 5l6 7q14 12 36 32l35 35q14 14 32 35l6 7l6 -14l-5 -5q-13 -16 -13 -27q0 -13 21 -34l206 -205l205 205q21 21 21 35q0 10 -13 26q-2 3 -5 5l6 14l6 -7q12 -13 32 -35l36 -35q12 -10 35 -32l6 -7l-13 -5
l-5 5q-17 13 -27 13q-13 0 -34 -21l-206 -206l206 -206q21 -21 34 -21q10 0 27 13q2 3 5 5z" />
    <glyph glyph-name="y" unicode="y" horiz-adv-x="784" 
d="M718 506l-13 -5l-5 5q-17 13 -27 13q-13 0 -34 -21l-219 -220v-218q0 -28 8 -37.5t30 -11.5h7l5 -13h-8q-8 0 -25 1t-23 1h-50q-5 0 -22 -1t-26 -1h-9l6 13h7q22 2 30 11.5t8 37.5v218l-220 220q-21 21 -34 21q-9 0 -26 -13l-5 -5l-14 5l7 7q6 6 18.5 17t16.5 15l35 35
q14 14 32 35l6 7l6 -14l-5 -5q-13 -17 -13 -27q0 -13 21 -34l206 -205l205 205q21 21 21 35q0 10 -13 26q-2 3 -4 5l5 14l7 -7q12 -13 32 -35l35 -35q12 -10 35 -32z" />
    <glyph glyph-name="z" unicode="z" horiz-adv-x="670" 
d="M566 -50l-14 5v7q-2 22 -11.5 30t-37.5 8h-384l327 522h-268q-28 0 -37 -8t-11 -30v-7l-14 -6v9q0 9 1 26t1 22v50q0 6 -1 23t-1 25v8l14 -5v-7q2 -22 11 -30t37 -8h382l-326 -522h269q28 0 37.5 8t11.5 30v7l14 6v-9q0 -8 -1.5 -25t-1.5 -23v-50q0 -5 1.5 -22.5
t1.5 -25.5v-8z" />
    <glyph glyph-name="braceleft" unicode="{" horiz-adv-x="504" 
d="M399 -108h-183v287l-112 112l112 112v280h183v-29h-127v-259l-104 -104l104 -104v-265h127v-30z" />
    <glyph glyph-name="bar" unicode="|" horiz-adv-x="308" 
d="M174 -182l-22 -23l-22 23v880l22 22l22 -22v-880z" />
    <glyph glyph-name="braceright" unicode="}" horiz-adv-x="504" 
d="M400 291l-112 -112v-287h-183v30h127v265l104 104l-104 104v259h-127v29h183v-280z" />
    <glyph glyph-name="asciitilde" unicode="~" horiz-adv-x="478" 
d="M362 329q0 -30 -21.5 -51.5t-51.5 -21.5q-36 0 -59 29q-10 13 -28 13q-15 0 -26 -11t-11 -26h-35q0 30 21 51.5t51 21.5q34 0 58 -28q13 -15 29 -15q15 0 26 11.5t11 26.5h36z" />
    <glyph glyph-name="nonbreakingspace" unicode="&#xa0;" horiz-adv-x="408" 
 />
    <glyph glyph-name="exclamdown" unicode="&#xa1;" horiz-adv-x="408" 
d="M270 539l-72 -72l-72 72l72 72zM250 19l-52 -51l-51 51l35 381l16 16l16 -16z" />
    <glyph glyph-name="cent" unicode="&#xa2;" horiz-adv-x="560" 
d="M440 104q-56 -37 -122 -37q-21 0 -44 5l-30 -106h-47l34 120q-54 26 -86.5 76.5t-32.5 111.5q0 85 60.5 145.5t145.5 60.5q16 0 23 -1l29 105h47l-32 -114q29 -11 55 -28l-2 -61q0 -3 1 -12t1 -16v-5h-13q-11 45 -58 62l-79 -280q24 -4 36 -4q85 0 98 71h14v-5
q0 -5 -1 -22v-20zM326 421q-59 0 -102 -43t-43 -104q0 -84 68 -125z" />
    <glyph glyph-name="sterling" unicode="&#xa3;" horiz-adv-x="576" 
d="M509 -50l-14 5v7q-2 22 -11 30t-38 8h-239q-28 0 -37 -8t-12 -30v-7l-13 -5v8q0 8 1 25.5t1 22.5v50q0 6 -1 23t-1 25v9l13 -6v-7q3 -20 10 -28t28 -10v217q-21 -1 -28 -9t-10 -28v-8l-13 -5v9q0 9 1 26t1 22v49q0 6 -1 23t-1 25v9l13 -6v-7q3 -20 10 -28t28 -9v78
q0 80 57 132q51 47 115 47q69 0 134 -52v-47q0 -4 1.5 -18.5t1.5 -25.5v-8h-16q-6 33 -35 58q-35 30 -86 30q-40 0 -75 -34.5t-35 -81.5v-78h80q28 0 37 7.5t11 29.5v7l14 6v-9q0 -8 -1 -25t-1 -23v-49q0 -5 1 -22t1 -26v-9l-14 5v8q-2 22 -11 29.5t-37 7.5h-80v-217h188
q29 0 38 8t11 30v7l14 6v-9q0 -8 -1.5 -25t-1.5 -23v-50q0 -5 1.5 -22.5t1.5 -25.5v-8z" />
    <glyph glyph-name="currency" unicode="&#xa4;" horiz-adv-x="602" 
d="M498 104q0 -8 -1.5 -25t-1.5 -23v-58q-39 2 -60 2h-355l286 296q59 61 59 114t-36 90t-88 37t-89.5 -37t-37.5 -90q0 -21 34 -24h7l6 -14h-9q-8 0 -25 1t-23 1h-50q-2 25 -2 36q0 78 55.5 133.5t133.5 55.5t133.5 -55.5t55.5 -133.5q0 -42 -16 -74q-17 -37 -64 -85
l-183 -189h208q28 0 37.5 8t11.5 30v7l14 6v-9z" />
    <glyph glyph-name="yen" unicode="&#xa5;" horiz-adv-x="784" 
d="M718 506l-13 -5l-5 5q-17 13 -27 13q-13 0 -34 -21l-219 -220v-25h130v-48h-130v-48h130v-48h-130v-49q0 -28 8 -37.5t30 -11.5h7l5 -13h-8q-8 0 -25 1t-23 1h-50q-5 0 -22 -1t-26 -1h-9l6 13h7q22 2 30 11.5t8 37.5v49h-129v48h129v48h-129v48h129v25l-220 220
q-21 21 -34 21q-9 0 -26 -13l-5 -5l-14 5l7 7q6 6 18.5 17t16.5 15l35 35q14 14 32 35l6 7l6 -14l-5 -5q-13 -17 -13 -27q0 -13 21 -34l206 -205l205 205q21 21 21 35q0 10 -13 26q-2 3 -4 5l5 14l7 -7q12 -13 32 -35l35 -35q12 -10 35 -32z" />
    <glyph glyph-name="brokenbar" unicode="&#xa6;" horiz-adv-x="236" 
d="M126 271h-20v395h20v-395zM126 -208h-20v396h20v-396z" />
    <glyph glyph-name="section" unicode="&#xa7;" horiz-adv-x="445" 
d="M359 289q0 -64 -57 -99q37 -32 37 -85q0 -52 -40.5 -86t-96.5 -34q-58 0 -94 41q-25 27 -30 58l61 27l7 -13q-15 -9 -15 -17q0 -14 19 -30q22 -19 54 -19q37 0 61 21.5t24 52.5q0 37 -59 68l-64 34q-72 38 -72 102q0 68 67 96q-47 34 -47 88q0 46 34 75.5t80 29.5
q80 0 118 -71l-53 -48l-9 14q12 13 12 20q0 14 -20 26.5t-45 12.5q-67 0 -67 -59q0 -33 50 -59l76 -40q69 -36 69 -106zM309 290q0 37 -59 68l-15 8q-12 3 -24 3q-67 0 -67 -59q0 -33 50 -59l59 -31q56 16 56 70z" />
    <glyph glyph-name="dieresis" unicode="&#xa8;" horiz-adv-x="308" 
d="M262 730l-44 -44l-44 44l44 44zM116 730l-44 -44l-44 44l44 44z" />
    <glyph glyph-name="copyright" unicode="&#xa9;" horiz-adv-x="838" 
d="M726 292q0 -127 -89.5 -217t-217.5 -90q-127 0 -217 90t-90 217t90 217t217 90q128 0 217.5 -89.5t89.5 -217.5zM686 292q0 109 -78.5 187.5t-188.5 78.5q-109 0 -187.5 -78.5t-78.5 -187.5t78.5 -187.5t187.5 -78.5q110 0 188.5 78.5t78.5 187.5zM532 372h-13
q-3 22 -15 29q-32 19 -66 19q-53 0 -90.5 -37.5t-37.5 -90.5t37.5 -90t90.5 -37q33 0 69 22q9 9 12 28h11v-11q0 -5 -1 -14v-10l1 -31q-48 -32 -92 -32q-72 0 -124 51.5t-52 123.5q0 73 52 124.5t124 51.5q44 0 92 -30v-32q0 -1 2 -23v-11z" />
    <glyph glyph-name="ordfeminine" unicode="&#xaa;" 
 />
    <glyph glyph-name="guillemotleft" unicode="&#xab;" horiz-adv-x="560" 
d="M472 206l-6 -5q-18 -15 -36 -33l-25 -25q-4 -4 -15.5 -17t-17.5 -19l-6 -6l-5 13q1 2 5 6q13 17 13 27q0 13 -21 34l-112 111l112 112q21 21 21 34q0 10 -13 27q-3 2 -5 5l5 13l6 -5q12 -14 33 -36l25 -26q12 -10 36 -32l6 -6l-14 -6q-1 2 -4 6q-18 12 -28 12
q-14 0 -34 -20l-77 -78l77 -77q21 -21 34 -21q11 0 28 13q1 3 4 6zM308 173l-30 -30q-4 -4 -15 -17t-17 -19l-6 -6l-6 13q2 2 5 6q13 16 13 26q0 14 -21 35l-111 111l111 112q21 21 21 35q0 10 -13 26l-5 5l6 13l6 -5q6 -6 17 -19t15 -17l30 -30l-119 -120z" />
    <glyph glyph-name="logicalnot" unicode="&#xac;" 
 />
    <glyph glyph-name="minus" unicode="&#xad;" horiz-adv-x="691" 
d="M547 224l-13 6v7q-3 22 -12 29.5t-37 7.5h-279q-28 0 -37 -7.5t-11 -29.5v-7l-14 -6v9q0 9 1 26t1 22v49q0 6 -1 23t-1 25v9l14 -5v-8q2 -22 11 -29.5t37 -7.5h279q28 0 37 7.5t12 29.5v8l13 5v-9q0 -8 -1 -25t-1 -23v-49q0 -5 1 -22t1 -26v-9z" />
    <glyph glyph-name="registered" unicode="&#xae;" horiz-adv-x="838" 
d="M726 292q0 -127 -89.5 -217t-217.5 -90q-127 0 -217 90t-90 217t90 217t217 90q128 0 217.5 -89.5t89.5 -217.5zM686 292q0 109 -78.5 187.5t-188.5 78.5q-109 0 -187.5 -78.5t-78.5 -187.5t78.5 -187.5t187.5 -78.5q110 0 188.5 78.5t78.5 187.5zM624 127h-14
q-4 0 -12.5 1t-13.5 1q-6 0 -40 -2l-145 144h-21v-111q0 -19 15 -20h9l6 -13h-14q-4 0 -13.5 1t-12.5 1h-27q-3 0 -12.5 -1t-14.5 -1h-13l8 13h7q15 1 15 20v271q0 20 -15 21h-7l-9 12h14h14q10 -1 13 -1h75q43 0 72 -26.5t29 -67.5q0 -64 -59 -90l115 -114q25 -24 45 -29z
M470 369q0 51 -56 51h-36v-106h36q25 0 40.5 16t15.5 39z" />
    <glyph glyph-name="macron" unicode="&#xaf;" horiz-adv-x="222" 
d="M210 518h-196v48h196v-48z" />
    <glyph glyph-name="degree" unicode="&#xb0;" horiz-adv-x="336" 
d="M288 479q0 -49 -35 -84.5t-85 -35.5q-49 0 -84.5 35.5t-35.5 84.5q0 50 35 85t85 35t85 -35t35 -85zM252 479q0 35 -24.5 59.5t-59.5 24.5t-59.5 -24.5t-24.5 -59.5q0 -34 25 -59t59 -25q35 0 59.5 25t24.5 59z" />
    <glyph glyph-name="plusminus" unicode="&#xb1;" 
 />
    <glyph glyph-name="twosuperior" unicode="&#xb2;" horiz-adv-x="418" 
d="M318 309v-14q-1 -9 -1 -13v-37q-28 1 -39 1h-212l168 173q32 33 32 59t-18.5 44.5t-44.5 18.5t-44 -18.5t-18 -44.5q0 -8 12 -8h9l7 -12h-15q-4 0 -13 1h-13h-34v19q0 45 32 77.5t77 32.5q46 0 78.5 -32.5t32.5 -77.5q0 -44 -46 -92l-90 -93h108q19 0 20 15v8l12 6v-13z
" />
    <glyph glyph-name="threesuperior" unicode="&#xb3;" horiz-adv-x="442" 
d="M355 584l-96 -127q34 -12 55.5 -40t21.5 -65q0 -46 -32.5 -78t-77.5 -32q-46 0 -78.5 32t-32.5 78q0 6 3 26h32q3 0 13 1h14h14l-9 -12h-7q-13 -2 -13 -15q0 -26 18.5 -44.5t45.5 -18.5q26 0 44.5 18.5t18.5 44.5q0 24 -17 41q-21 20 -60 20q-22 0 -50 -7l99 131h-103
q-20 0 -21 -15v-8l-12 -8v15q0 5 1 14v12v38q28 -1 40 -1h189z" />
    <glyph glyph-name="acute" unicode="&#xb4;" horiz-adv-x="478" 
d="M344 575l-130 -93h-44l89 93h85z" />
    <glyph glyph-name="mu" unicode="&#xb5;" horiz-adv-x="861" 
d="M789 586l-6 -13h-7q-22 -2 -30 -11.5t-8 -37.5v-232q0 -127 -89.5 -217t-217.5 -90q-152 0 -245 121v-186q0 -28 8 -37.5t30 -11.5h7l6 -13h-9q-8 0 -25 1t-23 1h-50q-5 0 -22 -1t-26 -1h-8l5 13h7q22 2 30 11.5t8 37.5v604q0 28 -8 37.5t-30 11.5h-7l-5 13h8q9 0 26 -1
t22 -1h49q6 0 23 1t25 1h9l-6 -13h-7q-22 -2 -29.5 -11.5t-7.5 -37.5v-232q0 -101 72 -173.5t173 -72.5t173.5 72.5t72.5 173.5v232q0 28 -8 37.5t-30 11.5h-7l-6 13h9q9 0 26 -1t22 -1h49q6 0 23 1t25 1h9z" />
    <glyph glyph-name="paragraph" unicode="&#xb6;" horiz-adv-x="568" 
d="M442 -122h-8q-8 0 -25 1t-23 1h-46v646h-82v-646h-45q-5 0 -22 -1t-26 -1h-9l6 13h7q22 2 29.5 11.5t7.5 37.5v334q-63 0 -108 45.5t-45 109.5t45.5 109.5t109.5 45.5h178q6 0 23 1t25 1h8l-5 -13h-7q-22 -2 -30 -11.5t-8 -37.5v-584q0 -28 8 -37.5t30 -11.5h7z" />
    <glyph glyph-name="cedilla" unicode="&#xb8;" horiz-adv-x="435" 
d="M232 -45l-114 -81h-44l84 96z" />
    <glyph glyph-name="onesuperior" unicode="&#xb9;" horiz-adv-x="360" 
d="M219 249h-14q-5 0 -14 1h-13h-28h-13q-9 -1 -14 -1h-14l9 12h7q15 1 15 21v270q0 20 -15 21h-7l-9 12h14h14q10 -1 13 -1h28q3 0 13 1h14h14l-9 -12h-7q-15 -1 -15 -21v-270q0 -20 14 -21h8z" />
    <glyph glyph-name="ordmasculine" unicode="&#xba;" 
 />
    <glyph glyph-name="guillemotright" unicode="&#xbb;" horiz-adv-x="560" 
d="M440 292l-111 -111q-21 -21 -21 -35q0 -10 13 -26q2 -2 5 -6l-6 -13l-6 6q-12 14 -32 36l-30 30l119 119l-119 120l30 30q3 3 14 16t18 20l6 5l6 -13l-5 -5q-13 -16 -13 -26q0 -14 21 -35zM314 292l-112 -111q-21 -21 -21 -34q0 -10 13 -27q3 -2 5 -6l-5 -13l-6 6
q-12 13 -33 36l-25 25q-18 18 -36 33l-6 5l14 7q2 -1 4 -6q17 -13 28 -13q13 0 34 21l77 77l-77 78q-20 20 -34 20q-10 0 -28 -12q-1 -3 -4 -6l-14 6l6 6q14 12 36 32l25 26l33 36l6 5l5 -13l-5 -5q-13 -17 -13 -27q0 -13 21 -34z" />
    <glyph glyph-name="onequarter" unicode="&#xbc;" horiz-adv-x="799" 
d="M219 249h-14q-5 0 -14 1h-13h-28h-13q-9 -1 -14 -1h-14l9 12h7q15 1 15 21v270q0 20 -15 21h-7l-9 12h14h14q10 -1 13 -1h28q3 0 13 1h14h14l-9 -12h-7q-15 -1 -15 -21v-270q0 -20 14 -21h8zM566 584l-356 -584h-52l356 584h52zM673 48l-12 9v7q-3 15 -21 15h-29v-48
q0 -20 15 -21h8l8 -12h-15q-5 0 -13.5 1t-11.5 1h-28q-3 0 -12.5 -1t-14.5 -1h-14l9 12h7q15 1 15 21v48h-168l215 285v-238h29q18 0 21 16v7l12 9v-15q0 -5 -1 -14t-1 -12v-28q0 -3 1 -12.5t1 -14.5v-14zM564 126v103l-79 -103h79z" />
    <glyph glyph-name="onehalf" unicode="&#xbd;" horiz-adv-x="799" 
d="M219 249h-14q-5 0 -14 1h-13h-28h-13q-9 -1 -14 -1h-14l9 12h7q15 1 15 21v270q0 20 -15 21h-7l-9 12h14h14q10 -1 13 -1h28q3 0 13 1h14h14l-9 -12h-7q-15 -1 -15 -21v-270q0 -20 14 -21h8zM566 584l-356 -584h-52l356 584h52zM694 63v-14q-1 -9 -1 -12v-38q-28 1 -39 1
h-212l168 174q32 33 32 58q0 26 -18.5 44.5t-44.5 18.5t-44 -18.5t-18 -44.5q0 -7 12 -7h9l7 -12h-15q-4 0 -13 1h-13h-34v18q0 46 32 78t77 32q46 0 78.5 -32t32.5 -78q0 -44 -46 -92l-90 -93h108q19 0 20 15v8l12 7v-14z" />
    <glyph glyph-name="threequarters" unicode="&#xbe;" horiz-adv-x="880" 
d="M355 584l-96 -127q34 -12 55.5 -40t21.5 -65q0 -46 -32.5 -78t-77.5 -32q-46 0 -78.5 32t-32.5 78q0 6 3 26h32q3 0 13 1h14h14l-9 -12h-7q-13 -2 -13 -15q0 -26 18.5 -44.5t45.5 -18.5q26 0 44.5 18.5t18.5 44.5q0 24 -17 41q-21 20 -60 20q-22 0 -50 -7l99 131h-103
q-20 0 -21 -15v-8l-12 -8v15q0 5 1 14v12v38q28 -1 40 -1h189zM670 584l-356 -584h-52l356 584h52zM777 48l-12 9v7q-3 15 -21 15h-29v-48q0 -20 15 -21h8l8 -12h-15q-5 0 -13.5 1t-11.5 1h-28q-3 0 -12.5 -1t-14.5 -1h-14l9 12h7q15 1 15 21v48h-168l215 285v-238h29
q18 0 21 16v7l12 9v-15q0 -5 -1 -14t-1 -12v-28q0 -3 1 -12.5t1 -14.5v-14zM668 126v103l-79 -103h79z" />
    <glyph glyph-name="questiondown" unicode="&#xbf;" horiz-adv-x="640" 
d="M419 555l-56 -56l-56 56l56 56zM520 174q0 -78 -55.5 -133.5t-133.5 -55.5t-133.5 55.5t-55.5 133.5q0 93 80 156l107 84v24l34 35l35 -35v-39l-132 -114q-59 -51 -59 -111q0 -53 36 -90t88 -37q53 0 90 37.5t37 89.5q0 21 -34 24h-7l-6 14h9q9 0 26 -1t22 -1h50
q2 -25 2 -36z" />
    <glyph glyph-name="Agrave" unicode="&#xc0;" horiz-adv-x="750" 
d="M707 16l-8 -4q-17 -6 -45 -18l-44 -21q-14 -8 -43 -23l-8 -4l-1 16q2 1 7 3q22 13 22 28q0 11 -9 32l-23 51h-362l-23 -51q-9 -21 -9 -32q0 -15 22 -28q3 -2 7 -3l-1 -16l-8 4q-16 9 -43 23l-44 21q-15 5 -45 18l-8 4l11 10l6 -4q14 -4 21 -4q19 0 34 33l261 565
l261 -565q15 -33 34 -33q7 0 21 4l6 4zM531 130l-157 354l-157 -354h314zM426 680h-45l-130 93h85z" />
    <glyph glyph-name="Aacute" unicode="&#xc1;" horiz-adv-x="750" 
d="M707 16l-8 -4q-17 -6 -45 -18l-44 -21q-14 -8 -43 -23l-8 -4l-1 16q2 1 7 3q22 13 22 28q0 11 -9 32l-23 51h-362l-23 -51q-9 -21 -9 -32q0 -15 22 -28q3 -2 7 -3l-1 -16l-8 4q-16 9 -43 23l-44 21q-15 5 -45 18l-8 4l11 10l6 -4q14 -4 21 -4q19 0 34 33l261 565
l261 -565q15 -33 34 -33q7 0 21 4l6 4zM531 130l-157 354l-157 -354h314zM506 771l-130 -93h-44l89 93h85z" />
    <glyph glyph-name="Acircumflex" unicode="&#xc2;" horiz-adv-x="750" 
d="M707 16l-8 -4q-17 -6 -45 -18l-44 -21q-14 -8 -43 -23l-8 -4l-1 16q2 1 7 3q22 13 22 28q0 11 -9 32l-23 51h-362l-23 -51q-9 -21 -9 -32q0 -15 22 -28q3 -2 7 -3l-1 -16l-8 4q-16 9 -43 23l-44 21q-15 5 -45 18l-8 4l11 10l6 -4q14 -4 21 -4q19 0 34 33l261 565
l261 -565q15 -33 34 -33q7 0 21 4l6 4zM531 130l-157 354l-157 -354h314zM477 678h-44l-62 45l-62 -45h-44l89 94h34z" />
    <glyph glyph-name="Atilde" unicode="&#xc3;" horiz-adv-x="750" 
d="M707 16l-8 -4q-17 -6 -45 -18l-44 -21q-14 -8 -43 -23l-8 -4l-1 16q2 1 7 3q22 13 22 28q0 11 -9 32l-23 51h-362l-23 -51q-9 -21 -9 -32q0 -15 22 -28q3 -2 7 -3l-1 -16l-8 4q-16 9 -43 23l-44 21q-15 5 -45 18l-8 4l11 10l6 -4q14 -4 21 -4q19 0 34 33l261 565
l261 -565q15 -33 34 -33q7 0 21 4l6 4zM531 130l-157 354l-157 -354h314zM485 751q0 -30 -21.5 -51.5t-51.5 -21.5q-35 0 -58 29q-11 13 -28 13q-15 0 -26.5 -11t-11.5 -26h-35q0 30 21.5 51.5t51.5 21.5q34 0 57 -28q12 -15 29 -15q15 0 26.5 11.5t11.5 26.5h35z" />
    <glyph glyph-name="Adieresis" unicode="&#xc4;" horiz-adv-x="750" 
d="M707 16l-8 -4q-17 -6 -45 -18l-44 -21q-14 -8 -43 -23l-8 -4l-1 16q2 1 7 3q22 13 22 28q0 11 -9 32l-23 51h-362l-23 -51q-9 -21 -9 -32q0 -15 22 -28q3 -2 7 -3l-1 -16l-8 4q-16 9 -43 23l-44 21q-15 5 -45 18l-8 4l11 10l6 -4q14 -4 21 -4q19 0 34 33l261 565
l261 -565q15 -33 34 -33q7 0 21 4l6 4zM531 130l-157 354l-157 -354h314zM491 723l-44 -44l-44 44l44 44zM345 723l-44 -44l-44 44l44 44z" />
    <glyph glyph-name="Aring" unicode="&#xc5;" horiz-adv-x="750" 
d="M707 16l-8 -4q-17 -6 -45 -18l-44 -21q-14 -8 -43 -23l-8 -4l-1 16q2 1 7 3q22 13 22 28q0 11 -9 32l-23 51h-362l-23 -51q-9 -21 -9 -32q0 -15 22 -28q3 -2 7 -3l-1 -16l-8 4q-16 9 -43 23l-44 21q-15 5 -45 18l-8 4l11 10l6 -4q14 -4 21 -4q19 0 34 33l261 565
l261 -565q15 -33 34 -33q7 0 21 4l6 4zM531 130l-157 354l-157 -354h314zM451 748q0 -31 -23 -54t-55 -23q-31 0 -54 23t-23 54q0 32 23 55t54 23q32 0 55 -23t23 -55zM416 748q0 17 -13 30t-30 13q-16 0 -29 -13t-13 -30q0 -15 13 -28.5t29 -13.5t29.5 13.5t13.5 28.5z" />
    <glyph glyph-name="AE" unicode="&#xc6;" horiz-adv-x="825" 
d="M672 -50l-14 5v7q-2 22 -11 30t-37 8h-195l-56 -56v132h-166l-23 -51q-9 -21 -9 -32q0 -15 22 -28q3 -2 7 -3l-1 -16l-8 4q-16 9 -43 23l-44 21q-15 5 -45 18l-8 4l11 10l6 -4q14 -4 21 -4q19 0 34 33l246 533h251q28 0 37 8t11 30v7l14 5v-8q0 -8 -1 -25t-1 -23v-50
q0 -5 1 -22t1 -26v-9l-14 6v7q-2 22 -11 30t-37 8h-188v-180h183q28 0 37 7.5t12 29.5v7l13 6v-9q0 -8 -1 -25t-1 -23v-49q0 -5 1 -22t1 -26v-9l-13 5v8q-3 22 -12 29.5t-37 7.5h-183v-217h188q28 0 37 8t11 30v7l14 6v-9q0 -8 -1 -25t-1 -23v-50q0 -5 1 -22.5t1 -25.5v-8z
M359 130v321l-142 -321h142z" />
    <glyph glyph-name="Ccedilla" unicode="&#xc7;" horiz-adv-x="692" 
d="M593 448h-16q-5 32 -31 52q-63 36 -127 36q-100 0 -172 -71.5t-72 -172.5q0 -100 72 -172t172 -72q66 0 134 42q20 22 25 50h12v-8q0 -10 -1.5 -24.5t-1.5 -19.5l3 -51q-73 -51 -165 -52l-95 -68h-44l66 75q-104 23 -172 107t-68 193q0 127 90 217t217 90q96 0 171 -52
v-47q0 -4 1.5 -18.5t1.5 -25.5v-8z" />
    <glyph glyph-name="Egrave" unicode="&#xc8;" horiz-adv-x="662" 
d="M509 -50l-14 5v7q-2 22 -11 30t-38 8h-194l-56 -56v335q-21 -1 -28 -9t-10 -28v-8l-13 -5v9q0 9 1 26t1 22v49q0 6 -1 23t-1 25v9l13 -6v-7q3 -20 10 -28t28 -9v242h250q29 0 38 8t11 30v7l14 5v-8q0 -8 -1.5 -25t-1.5 -23v-50q0 -5 1.5 -22t1.5 -26v-9l-14 6v7
q-2 22 -11 30t-38 8h-188v-180h184q28 0 37 7.5t11 29.5v7l14 6v-9q0 -8 -1 -25t-1 -23v-49q0 -5 1 -22t1 -26v-9l-14 5v8q-2 22 -11 29.5t-37 7.5h-184v-217h188q29 0 38 8t11 30v7l14 6v-9q0 -8 -1.5 -25t-1.5 -23v-50q0 -5 1.5 -22.5t1.5 -25.5v-8zM420 678h-45l-130 93
h85z" />
    <glyph glyph-name="Eacute" unicode="&#xc9;" horiz-adv-x="662" 
d="M509 -50l-14 5v7q-2 22 -11 30t-38 8h-194l-56 -56v335q-21 -1 -28 -9t-10 -28v-8l-13 -5v9q0 9 1 26t1 22v49q0 6 -1 23t-1 25v9l13 -6v-7q3 -20 10 -28t28 -9v242h250q29 0 38 8t11 30v7l14 5v-8q0 -8 -1.5 -25t-1.5 -23v-50q0 -5 1.5 -22t1.5 -26v-9l-14 6v7
q-2 22 -11 30t-38 8h-188v-180h184q28 0 37 7.5t11 29.5v7l14 6v-9q0 -8 -1 -25t-1 -23v-49q0 -5 1 -22t1 -26v-9l-14 5v8q-2 22 -11 29.5t-37 7.5h-184v-217h188q29 0 38 8t11 30v7l14 6v-9q0 -8 -1.5 -25t-1.5 -23v-50q0 -5 1.5 -22.5t1.5 -25.5v-8zM479 773l-130 -93h-44
l89 93h85z" />
    <glyph glyph-name="Ecircumflex" unicode="&#xca;" horiz-adv-x="662" 
d="M509 -50l-14 5v7q-2 22 -11 30t-38 8h-194l-56 -56v335q-21 -1 -28 -9t-10 -28v-8l-13 -5v9q0 9 1 26t1 22v49q0 6 -1 23t-1 25v9l13 -6v-7q3 -20 10 -28t28 -9v242h250q29 0 38 8t11 30v7l14 5v-8q0 -8 -1.5 -25t-1.5 -23v-50q0 -5 1.5 -22t1.5 -26v-9l-14 6v7
q-2 22 -11 30t-38 8h-188v-180h184q28 0 37 7.5t11 29.5v7l14 6v-9q0 -8 -1 -25t-1 -23v-49q0 -5 1 -22t1 -26v-9l-14 5v8q-2 22 -11 29.5t-37 7.5h-184v-217h188q29 0 38 8t11 30v7l14 6v-9q0 -8 -1.5 -25t-1.5 -23v-50q0 -5 1.5 -22.5t1.5 -25.5v-8zM451 678h-44l-62 45
l-62 -45h-44l89 94h34z" />
    <glyph glyph-name="Edieresis" unicode="&#xcb;" horiz-adv-x="662" 
d="M509 -50l-14 5v7q-2 22 -11 30t-38 8h-194l-56 -56v335q-21 -1 -28 -9t-10 -28v-8l-13 -5v9q0 9 1 26t1 22v49q0 6 -1 23t-1 25v9l13 -6v-7q3 -20 10 -28t28 -9v242h250q29 0 38 8t11 30v7l14 5v-8q0 -8 -1.5 -25t-1.5 -23v-50q0 -5 1.5 -22t1.5 -26v-9l-14 6v7
q-2 22 -11 30t-38 8h-188v-180h184q28 0 37 7.5t11 29.5v7l14 6v-9q0 -8 -1 -25t-1 -23v-49q0 -5 1 -22t1 -26v-9l-14 5v8q-2 22 -11 29.5t-37 7.5h-184v-217h188q29 0 38 8t11 30v7l14 6v-9q0 -8 -1.5 -25t-1.5 -23v-50q0 -5 1.5 -22.5t1.5 -25.5v-8zM473 723l-44 -44
l-44 44l44 44zM327 723l-44 -44l-44 44l44 44z" />
    <glyph glyph-name="Igrave" unicode="&#xcc;" horiz-adv-x="414" 
d="M290 -2h-8q-8 0 -25 1t-23 1h-53q-5 0 -22 -1t-26 -1h-9l6 13h7q22 2 29.5 11.5t7.5 37.5v464q0 28 -7.5 37.5t-29.5 11.5h-7l-6 13h9q9 0 26 -1t22 -1h53q6 0 23 1t25 1h8l-5 -13h-7q-22 -2 -30 -11.5t-8 -37.5v-464q0 -28 8 -37.5t30 -11.5h7zM253 678h-45l-130 93h85z
" />
    <glyph glyph-name="Iacute" unicode="&#xcd;" horiz-adv-x="414" 
d="M290 -2h-8q-8 0 -25 1t-23 1h-53q-5 0 -22 -1t-26 -1h-9l6 13h7q22 2 29.5 11.5t7.5 37.5v464q0 28 -7.5 37.5t-29.5 11.5h-7l-6 13h9q9 0 26 -1t22 -1h53q6 0 23 1t25 1h8l-5 -13h-7q-22 -2 -30 -11.5t-8 -37.5v-464q0 -28 8 -37.5t30 -11.5h7zM322 771l-130 -93h-44
l89 93h85z" />
    <glyph glyph-name="Icircumflex" unicode="&#xce;" horiz-adv-x="414" 
d="M290 -2h-8q-8 0 -25 1t-23 1h-53q-5 0 -22 -1t-26 -1h-9l6 13h7q22 2 29.5 11.5t7.5 37.5v464q0 28 -7.5 37.5t-29.5 11.5h-7l-6 13h9q9 0 26 -1t22 -1h53q6 0 23 1t25 1h8l-5 -13h-7q-22 -2 -30 -11.5t-8 -37.5v-464q0 -28 8 -37.5t30 -11.5h7zM315 678h-44l-62 45
l-62 -45h-44l89 94h34z" />
    <glyph glyph-name="Idieresis" unicode="&#xcf;" horiz-adv-x="414" 
d="M290 -2h-8q-8 0 -25 1t-23 1h-53q-5 0 -22 -1t-26 -1h-9l6 13h7q22 2 29.5 11.5t7.5 37.5v464q0 28 -7.5 37.5t-29.5 11.5h-7l-6 13h9q9 0 26 -1t22 -1h53q6 0 23 1t25 1h8l-5 -13h-7q-22 -2 -30 -11.5t-8 -37.5v-464q0 -28 8 -37.5t30 -11.5h7zM318 723l-44 -44l-44 44
l44 44zM172 723l-44 -44l-44 44l44 44z" />
    <glyph glyph-name="Eth" unicode="&#xd0;" horiz-adv-x="746" 
d="M634 294q0 -125 -87 -210t-213 -85h-58q-36 1 -38 1h-72q-5 0 -22 -1t-26 -1h-8l5 13h7q22 2 30 11.5t8 37.5v236h-54v56h54v172q0 28 -8 37.5t-30 11.5h-7l-5 13h8q9 0 26 -1t22 -1h60q12 0 47 1t61 1q124 0 212 -84.5t88 -207.5zM571 291q0 98 -68.5 167.5t-165.5 69.5
h-113v-176h82v-56h-82v-240h113q97 0 165.5 69t68.5 166z" />
    <glyph glyph-name="Ntilde" unicode="&#xd1;" horiz-adv-x="782" 
d="M673 -2h-9q-8 0 -25 1t-23 1h-50q-5 0 -22 -1t-26 -1h-8l5 13h7q22 2 30 11.5t8 37.5v6l-338 360v-366q0 -28 8 -37.5t30 -11.5h7l6 -13h-9q-8 0 -25 1t-23 1h-50q-5 0 -22 -1t-26 -1h-8l5 13h7q22 2 30 11.5t8 37.5v464q0 28 -8 37.5t-30 11.5h-7l-5 13h8q9 0 26 -1
t22 -1h50q6 0 23 1t25 1h9l-6 -13h-7q-22 -2 -30 -11.5t-8 -37.5v-8l338 -358v366q0 28 -8 37.5t-30 11.5h-7l-5 13h8q9 0 26 -1t22 -1h50q6 0 23 1t25 1h9l-6 -13h-7q-22 -2 -30 -11.5t-8 -37.5v-464q0 -28 8 -37.5t30 -11.5h7zM520 751q0 -30 -21.5 -51.5t-51.5 -21.5
q-35 0 -58 29q-11 13 -28 13q-15 0 -26.5 -11t-11.5 -26h-35q0 30 21.5 51.5t51.5 21.5q34 0 57 -28q12 -15 29 -15q15 0 26.5 11.5t11.5 26.5h35z" />
    <glyph glyph-name="Ograve" unicode="&#xd2;" horiz-adv-x="838" 
d="M726 292q0 -127 -89.5 -217t-217.5 -90q-127 0 -217 90t-90 217t90 217t217 90q128 0 217.5 -89.5t89.5 -217.5zM663 319q-10 86 -70.5 146.5t-146.5 70.5v-217h217zM392 319v217q-85 -10 -146 -70.5t-71 -146.5h217zM663 265h-217v-217q85 10 146 71t71 146zM392 48v217
h-217q10 -85 71 -146t146 -71zM461 678h-45l-130 93h85z" />
    <glyph glyph-name="Oacute" unicode="&#xd3;" horiz-adv-x="838" 
d="M726 292q0 -127 -89.5 -217t-217.5 -90q-127 0 -217 90t-90 217t90 217t217 90q128 0 217.5 -89.5t89.5 -217.5zM663 319q-10 86 -70.5 146.5t-146.5 70.5v-217h217zM392 319v217q-85 -10 -146 -70.5t-71 -146.5h217zM663 265h-217v-217q85 10 146 71t71 146zM392 48v217
h-217q10 -85 71 -146t146 -71zM547 771l-130 -93h-44l89 93h85z" />
    <glyph glyph-name="Ocircumflex" unicode="&#xd4;" horiz-adv-x="838" 
d="M726 292q0 -127 -89.5 -217t-217.5 -90q-127 0 -217 90t-90 217t90 217t217 90q128 0 217.5 -89.5t89.5 -217.5zM663 319q-10 86 -70.5 146.5t-146.5 70.5v-217h217zM392 319v217q-85 -10 -146 -70.5t-71 -146.5h217zM663 265h-217v-217q85 10 146 71t71 146zM392 48v217
h-217q10 -85 71 -146t146 -71zM520 678h-44l-62 45l-62 -45h-44l89 94h34z" />
    <glyph glyph-name="Otilde" unicode="&#xd5;" horiz-adv-x="838" 
d="M726 292q0 -127 -89.5 -217t-217.5 -90q-127 0 -217 90t-90 217t90 217t217 90q128 0 217.5 -89.5t89.5 -217.5zM663 319q-10 86 -70.5 146.5t-146.5 70.5v-217h217zM392 319v217q-85 -10 -146 -70.5t-71 -146.5h217zM663 265h-217v-217q85 10 146 71t71 146zM392 48v217
h-217q10 -85 71 -146t146 -71zM528 751q0 -30 -21.5 -51.5t-51.5 -21.5q-35 0 -58 29q-11 13 -28 13q-15 0 -26.5 -11t-11.5 -26h-35q0 30 21.5 51.5t51.5 21.5q34 0 57 -28q12 -15 29 -15q15 0 26.5 11.5t11.5 26.5h35z" />
    <glyph glyph-name="Odieresis" unicode="&#xd6;" horiz-adv-x="838" 
d="M726 292q0 -127 -89.5 -217t-217.5 -90q-127 0 -217 90t-90 217t90 217t217 90q128 0 217.5 -89.5t89.5 -217.5zM663 319q-10 86 -70.5 146.5t-146.5 70.5v-217h217zM392 319v217q-85 -10 -146 -70.5t-71 -146.5h217zM663 265h-217v-217q85 10 146 71t71 146zM392 48v217
h-217q10 -85 71 -146t146 -71zM533 723l-44 -44l-44 44l44 44zM387 723l-44 -44l-44 44l44 44z" />
    <glyph glyph-name="multiply" unicode="&#xd7;" horiz-adv-x="598" 
d="M486 228l-6 -6q-13 -12 -35 -32l-30 -29q-7 -6 -32 -36l-6 -7l-6 14q2 2 5 6q13 16 13 26q0 13 -21 34l-69 69l-69 -69q-21 -21 -21 -34q0 -10 13 -26q3 -3 5 -6l-5 -14l-6 7q-12 14 -33 36l-29 29q-12 10 -36 32l-6 6l14 6q2 -1 4 -5q17 -13 27 -13q14 0 35 21l69 69
l-69 69q-21 21 -34 21q-11 0 -28 -13q-1 -2 -4 -5l-14 5l6 7q14 12 36 32l29 29q4 4 15.5 17t17.5 19l6 6l5 -14l-5 -5q-13 -16 -13 -26q0 -13 21 -34l69 -70l69 70q21 21 21 34q0 11 -13 26q-2 3 -5 5l6 14l6 -6q12 -14 32 -36l30 -29q12 -10 35 -32l6 -7l-13 -5l-5 5
q-16 13 -27 13q-13 0 -34 -21l-69 -69l69 -69q21 -21 35 -21q10 0 26 13l5 5z" />
    <glyph glyph-name="Oslash" unicode="&#xd8;" horiz-adv-x="838" 
d="M726 292q0 -127 -89.5 -217t-217.5 -90q-111 0 -197 71l-60 -60l-39 38l61 60q-72 86 -72 198q0 127 90 217t217 90q112 0 197 -72l67 67l38 -40l-66 -65q71 -87 71 -197zM572 483q-66 55 -153 55q-101 0 -173 -72.5t-72 -173.5q0 -85 53 -154zM665 292q0 86 -54 153
l-345 -345q67 -54 153 -54q101 0 173.5 72.5t72.5 173.5z" />
    <glyph glyph-name="Ugrave" unicode="&#xd9;" horiz-adv-x="861" 
d="M789 586l-6 -13h-7q-22 -2 -30 -11.5t-8 -37.5v-232q0 -127 -89.5 -217t-217.5 -90q-127 0 -217 90t-90 217v232q0 28 -8 37.5t-30 11.5h-7l-5 13h8q9 0 26 -1t22 -1h49q6 0 23 1t25 1h9l-6 -13h-7q-22 -2 -29.5 -11.5t-7.5 -37.5v-232q0 -101 72 -173.5t173 -72.5
t173.5 72.5t72.5 173.5v232q0 28 -8 37.5t-30 11.5h-7l-6 13h9q9 0 26 -1t22 -1h49q6 0 23 1t25 1h9zM471 678h-45l-130 93h85z" />
    <glyph glyph-name="Uacute" unicode="&#xda;" horiz-adv-x="861" 
d="M789 586l-6 -13h-7q-22 -2 -30 -11.5t-8 -37.5v-232q0 -127 -89.5 -217t-217.5 -90q-127 0 -217 90t-90 217v232q0 28 -8 37.5t-30 11.5h-7l-5 13h8q9 0 26 -1t22 -1h49q6 0 23 1t25 1h9l-6 -13h-7q-22 -2 -29.5 -11.5t-7.5 -37.5v-232q0 -101 72 -173.5t173 -72.5
t173.5 72.5t72.5 173.5v232q0 28 -8 37.5t-30 11.5h-7l-6 13h9q9 0 26 -1t22 -1h49q6 0 23 1t25 1h9zM562 771l-130 -93h-44l89 93h85z" />
    <glyph glyph-name="Ucircumflex" unicode="&#xdb;" horiz-adv-x="861" 
d="M789 586l-6 -13h-7q-22 -2 -30 -11.5t-8 -37.5v-232q0 -127 -89.5 -217t-217.5 -90q-127 0 -217 90t-90 217v232q0 28 -8 37.5t-30 11.5h-7l-5 13h8q9 0 26 -1t22 -1h49q6 0 23 1t25 1h9l-6 -13h-7q-22 -2 -29.5 -11.5t-7.5 -37.5v-232q0 -101 72 -173.5t173 -72.5
t173.5 72.5t72.5 173.5v232q0 28 -8 37.5t-30 11.5h-7l-6 13h9q9 0 26 -1t22 -1h49q6 0 23 1t25 1h9zM548 678h-44l-62 45l-62 -45h-44l89 94h34z" />
    <glyph glyph-name="Udieresis" unicode="&#xdc;" horiz-adv-x="861" 
d="M789 586l-6 -13h-7q-22 -2 -30 -11.5t-8 -37.5v-232q0 -127 -89.5 -217t-217.5 -90q-127 0 -217 90t-90 217v232q0 28 -8 37.5t-30 11.5h-7l-5 13h8q9 0 26 -1t22 -1h49q6 0 23 1t25 1h9l-6 -13h-7q-22 -2 -29.5 -11.5t-7.5 -37.5v-232q0 -101 72 -173.5t173 -72.5
t173.5 72.5t72.5 173.5v232q0 28 -8 37.5t-30 11.5h-7l-6 13h9q9 0 26 -1t22 -1h49q6 0 23 1t25 1h9zM577 723l-44 -44l-44 44l44 44zM431 723l-44 -44l-44 44l44 44z" />
    <glyph glyph-name="Yacute" unicode="&#xdd;" horiz-adv-x="784" 
d="M718 506l-13 -5l-5 5q-17 13 -27 13q-13 0 -34 -21l-219 -220v-218q0 -28 8 -37.5t30 -11.5h7l5 -13h-8q-8 0 -25 1t-23 1h-50q-5 0 -22 -1t-26 -1h-9l6 13h7q22 2 30 11.5t8 37.5v218l-220 220q-21 21 -34 21q-9 0 -26 -13l-5 -5l-14 5l7 7q6 6 18.5 17t16.5 15l35 35
q14 14 32 35l6 7l6 -14l-5 -5q-13 -17 -13 -27q0 -13 21 -34l206 -205l205 205q21 21 21 35q0 10 -13 26q-2 3 -4 5l5 14l7 -7q12 -13 32 -35l35 -35q12 -10 35 -32zM538 772l-130 -93h-44l89 93h85z" />
    <glyph glyph-name="Thorn" unicode="&#xde;" horiz-adv-x="560" 
d="M484 342q0 -75 -53 -128t-128 -53h-81v-101q0 -28 8 -37.5t30 -11.5h7l6 -13h-9q-8 0 -25 1t-23 1h-50q-5 0 -22 -1t-26 -1h-8l5 13h7q22 2 30 11.5t8 37.5v464q0 28 -8 37.5t-30 11.5h-7l-5 13h8q9 0 26 -1t22 -1h50q6 0 23 1t25 1h9l-6 -13h-7q-22 -2 -30 -11.5
t-8 -37.5v-8h81q76 0 128.5 -50t52.5 -124zM423 342q0 51 -35.5 84t-88.5 33h-77v-241h77q53 0 88.5 36t35.5 88z" />
    <glyph glyph-name="germandbls" unicode="&#xdf;" horiz-adv-x="654" 
d="M566 122q0 -57 -47.5 -97t-112.5 -40q-62 0 -104 43q-34 35 -38 75q16 5 70 29l4 -9q-16 -12 -16 -23q0 -21 26 -38.5t62 -17.5q39 0 66 25.5t27 56.5q0 36 -45 63q-41 25 -83 50q-45 35 -45 89q0 40 27 66q25 17 51.5 35t26.5 43q0 35 -32 55q-28 17 -67 17
q-50 0 -82 -37.5t-32 -86.5v-360q0 -28 8 -37.5t30 -11.5h7l6 -13h-9q-8 0 -25 1t-23 1h-50q-5 0 -22 -1t-26 -1h-8l5 13h7q22 2 30 11.5t8 37.5v360q0 72 52 125.5t124 53.5q65 0 111 -33q51 -36 51 -94q0 -44 -27 -71q-6 -6 -50 -34q-27 -18 -27 -39q0 -32 45 -58
q76 -46 82 -51q45 -37 45 -97z" />
    <glyph glyph-name="agrave" unicode="&#xe0;" horiz-adv-x="750" 
d="M707 16l-8 -4q-17 -6 -45 -18l-44 -21q-14 -8 -43 -23l-8 -4l-1 16q2 1 7 3q22 13 22 28q0 11 -9 32l-23 51h-362l-23 -51q-9 -21 -9 -32q0 -15 22 -28q3 -2 7 -3l-1 -16l-8 4q-16 9 -43 23l-44 21q-15 5 -45 18l-8 4l11 10l6 -4q14 -4 21 -4q19 0 34 33l261 565
l261 -565q15 -33 34 -33q7 0 21 4l6 4zM531 130l-157 354l-157 -354h314zM428 679h-45l-130 93h85z" />
    <glyph glyph-name="aacute" unicode="&#xe1;" horiz-adv-x="750" 
d="M707 16l-8 -4q-17 -6 -45 -18l-44 -21q-14 -8 -43 -23l-8 -4l-1 16q2 1 7 3q22 13 22 28q0 11 -9 32l-23 51h-362l-23 -51q-9 -21 -9 -32q0 -15 22 -28q3 -2 7 -3l-1 -16l-8 4q-16 9 -43 23l-44 21q-15 5 -45 18l-8 4l11 10l6 -4q14 -4 21 -4q19 0 34 33l261 565
l261 -565q15 -33 34 -33q7 0 21 4l6 4zM531 130l-157 354l-157 -354h314zM514 772l-130 -93h-44l89 93h85z" />
    <glyph glyph-name="acircumflex" unicode="&#xe2;" horiz-adv-x="750" 
d="M707 16l-8 -4q-17 -6 -45 -18l-44 -21q-14 -8 -43 -23l-8 -4l-1 16q2 1 7 3q22 13 22 28q0 11 -9 32l-23 51h-362l-23 -51q-9 -21 -9 -32q0 -15 22 -28q3 -2 7 -3l-1 -16l-8 4q-16 9 -43 23l-44 21q-15 5 -45 18l-8 4l11 10l6 -4q14 -4 21 -4q19 0 34 33l261 565
l261 -565q15 -33 34 -33q7 0 21 4l6 4zM531 130l-157 354l-157 -354h314zM478 680h-44l-62 45l-62 -45h-44l89 94h34z" />
    <glyph glyph-name="atilde" unicode="&#xe3;" horiz-adv-x="750" 
d="M707 16l-8 -4q-17 -6 -45 -18l-44 -21q-14 -8 -43 -23l-8 -4l-1 16q2 1 7 3q22 13 22 28q0 11 -9 32l-23 51h-362l-23 -51q-9 -21 -9 -32q0 -15 22 -28q3 -2 7 -3l-1 -16l-8 4q-16 9 -43 23l-44 21q-15 5 -45 18l-8 4l11 10l6 -4q14 -4 21 -4q19 0 34 33l261 565
l261 -565q15 -33 34 -33q7 0 21 4l6 4zM531 130l-157 354l-157 -354h314zM490 753q0 -30 -21.5 -51.5t-51.5 -21.5q-35 0 -58 29q-11 13 -28 13q-15 0 -26.5 -11t-11.5 -26h-35q0 30 21.5 51.5t51.5 21.5q34 0 57 -28q12 -15 29 -15q15 0 26.5 11.5t11.5 26.5h35z" />
    <glyph glyph-name="adieresis" unicode="&#xe4;" horiz-adv-x="750" 
d="M707 16l-8 -4q-17 -6 -45 -18l-44 -21q-14 -8 -43 -23l-8 -4l-1 16q2 1 7 3q22 13 22 28q0 11 -9 32l-23 51h-362l-23 -51q-9 -21 -9 -32q0 -15 22 -28q3 -2 7 -3l-1 -16l-8 4q-16 9 -43 23l-44 21q-15 5 -45 18l-8 4l11 10l6 -4q14 -4 21 -4q19 0 34 33l261 565
l261 -565q15 -33 34 -33q7 0 21 4l6 4zM531 130l-157 354l-157 -354h314zM495 725l-48 -44l-47 44l47 44zM338 724l-47 -44l-47 44l47 44z" />
    <glyph glyph-name="aring" unicode="&#xe5;" horiz-adv-x="750" 
d="M707 16l-8 -4q-17 -6 -45 -18l-44 -21q-14 -8 -43 -23l-8 -4l-1 16q2 1 7 3q22 13 22 28q0 11 -9 32l-23 51h-362l-23 -51q-9 -21 -9 -32q0 -15 22 -28q3 -2 7 -3l-1 -16l-8 4q-16 9 -43 23l-44 21q-15 5 -45 18l-8 4l11 10l6 -4q14 -4 21 -4q19 0 34 33l261 565
l261 -565q15 -33 34 -33q7 0 21 4l6 4zM531 130l-157 354l-157 -354h314zM447 748q0 -31 -23 -54t-55 -23q-31 0 -54 23t-23 54q0 32 23 55t54 23q32 0 55 -23t23 -55zM412 748q0 17 -13 30t-30 13q-16 0 -29 -13t-13 -30q0 -15 13 -28.5t29 -13.5t29.5 13.5t13.5 28.5z" />
    <glyph glyph-name="ae" unicode="&#xe6;" horiz-adv-x="825" 
d="M672 -50l-14 5v7q-2 22 -11 30t-37 8h-195l-56 -56v132h-166l-23 -51q-9 -21 -9 -32q0 -15 22 -28q3 -2 7 -3l-1 -16l-8 4q-16 9 -43 23l-44 21q-15 5 -45 18l-8 4l11 10l6 -4q14 -4 21 -4q19 0 34 33l246 533h251q28 0 37 8t11 30v7l14 5v-8q0 -8 -1 -25t-1 -23v-50
q0 -5 1 -22t1 -26v-9l-14 6v7q-2 22 -11 30t-37 8h-188v-180h183q28 0 37 7.5t12 29.5v7l13 6v-9q0 -8 -1 -25t-1 -23v-49q0 -5 1 -22t1 -26v-9l-13 5v8q-3 22 -12 29.5t-37 7.5h-183v-217h188q28 0 37 8t11 30v7l14 6v-9q0 -8 -1 -25t-1 -23v-50q0 -5 1 -22.5t1 -25.5v-8z
M359 130v321l-142 -321h142z" />
    <glyph glyph-name="ccedilla" unicode="&#xe7;" horiz-adv-x="692" 
d="M593 448h-16q-5 32 -31 52q-63 36 -127 36q-100 0 -172 -71.5t-72 -172.5q0 -100 72 -172t172 -72q66 0 134 42q20 22 25 50h12v-8q0 -10 -1.5 -24.5t-1.5 -19.5l3 -51q-73 -51 -165 -52l-95 -68h-44l66 75q-104 23 -172 107t-68 193q0 127 90 217t217 90q96 0 171 -52
v-47q0 -4 1.5 -18.5t1.5 -25.5v-8z" />
    <glyph glyph-name="egrave" unicode="&#xe8;" horiz-adv-x="662" 
d="M509 -50l-14 5v7q-2 22 -11 30t-38 8h-194l-56 -56v335q-21 -1 -28 -9t-10 -28v-8l-13 -5v9q0 9 1 26t1 22v49q0 6 -1 23t-1 25v9l13 -6v-7q3 -20 10 -28t28 -9v242h250q29 0 38 8t11 30v7l14 5v-8q0 -8 -1.5 -25t-1.5 -23v-50q0 -5 1.5 -22t1.5 -26v-9l-14 6v7
q-2 22 -11 30t-38 8h-188v-180h184q28 0 37 7.5t11 29.5v7l14 6v-9q0 -8 -1 -25t-1 -23v-49q0 -5 1 -22t1 -26v-9l-14 5v8q-2 22 -11 29.5t-37 7.5h-184v-217h188q29 0 38 8t11 30v7l14 6v-9q0 -8 -1.5 -25t-1.5 -23v-50q0 -5 1.5 -22.5t1.5 -25.5v-8zM418 679h-45l-130 93
h85z" />
    <glyph glyph-name="eacute" unicode="&#xe9;" horiz-adv-x="662" 
d="M509 -50l-14 5v7q-2 22 -11 30t-38 8h-194l-56 -56v335q-21 -1 -28 -9t-10 -28v-8l-13 -5v9q0 9 1 26t1 22v49q0 6 -1 23t-1 25v9l13 -6v-7q3 -20 10 -28t28 -9v242h250q29 0 38 8t11 30v7l14 5v-8q0 -8 -1.5 -25t-1.5 -23v-50q0 -5 1.5 -22t1.5 -26v-9l-14 6v7
q-2 22 -11 30t-38 8h-188v-180h184q28 0 37 7.5t11 29.5v7l14 6v-9q0 -8 -1 -25t-1 -23v-49q0 -5 1 -22t1 -26v-9l-14 5v8q-2 22 -11 29.5t-37 7.5h-184v-217h188q29 0 38 8t11 30v7l14 6v-9q0 -8 -1.5 -25t-1.5 -23v-50q0 -5 1.5 -22.5t1.5 -25.5v-8zM478 772l-130 -93h-44
l89 93h85z" />
    <glyph glyph-name="ecircumflex" unicode="&#xea;" horiz-adv-x="662" 
d="M509 -50l-14 5v7q-2 22 -11 30t-38 8h-194l-56 -56v335q-21 -1 -28 -9t-10 -28v-8l-13 -5v9q0 9 1 26t1 22v49q0 6 -1 23t-1 25v9l13 -6v-7q3 -20 10 -28t28 -9v242h250q29 0 38 8t11 30v7l14 5v-8q0 -8 -1.5 -25t-1.5 -23v-50q0 -5 1.5 -22t1.5 -26v-9l-14 6v7
q-2 22 -11 30t-38 8h-188v-180h184q28 0 37 7.5t11 29.5v7l14 6v-9q0 -8 -1 -25t-1 -23v-49q0 -5 1 -22t1 -26v-9l-14 5v8q-2 22 -11 29.5t-37 7.5h-184v-217h188q29 0 38 8t11 30v7l14 6v-9q0 -8 -1.5 -25t-1.5 -23v-50q0 -5 1.5 -22.5t1.5 -25.5v-8zM456 680h-44l-62 45
l-62 -45h-44l89 94h34z" />
    <glyph glyph-name="edieresis" unicode="&#xeb;" horiz-adv-x="662" 
d="M509 -50l-14 5v7q-2 22 -11 30t-38 8h-194l-56 -56v335q-21 -1 -28 -9t-10 -28v-8l-13 -5v9q0 9 1 26t1 22v49q0 6 -1 23t-1 25v9l13 -6v-7q3 -20 10 -28t28 -9v242h250q29 0 38 8t11 30v7l14 5v-8q0 -8 -1.5 -25t-1.5 -23v-50q0 -5 1.5 -22t1.5 -26v-9l-14 6v7
q-2 22 -11 30t-38 8h-188v-180h184q28 0 37 7.5t11 29.5v7l14 6v-9q0 -8 -1 -25t-1 -23v-49q0 -5 1 -22t1 -26v-9l-14 5v8q-2 22 -11 29.5t-37 7.5h-184v-217h188q29 0 38 8t11 30v7l14 6v-9q0 -8 -1.5 -25t-1.5 -23v-50q0 -5 1.5 -22.5t1.5 -25.5v-8zM468 724l-44 -44
l-44 44l44 44zM322 724l-44 -44l-44 44l44 44z" />
    <glyph glyph-name="igrave" unicode="&#xec;" horiz-adv-x="414" 
d="M290 -2h-8q-8 0 -25 1t-23 1h-53q-5 0 -22 -1t-26 -1h-9l6 13h7q22 2 29.5 11.5t7.5 37.5v464q0 28 -7.5 37.5t-29.5 11.5h-7l-6 13h9q9 0 26 -1t22 -1h53q6 0 23 1t25 1h8l-5 -13h-7q-22 -2 -30 -11.5t-8 -37.5v-464q0 -28 8 -37.5t30 -11.5h7zM260 679h-45l-130 93h85z
" />
    <glyph glyph-name="iacute" unicode="&#xed;" horiz-adv-x="414" 
d="M290 -2h-8q-8 0 -25 1t-23 1h-53q-5 0 -22 -1t-26 -1h-9l6 13h7q22 2 29.5 11.5t7.5 37.5v464q0 28 -7.5 37.5t-29.5 11.5h-7l-6 13h9q9 0 26 -1t22 -1h53q6 0 23 1t25 1h8l-5 -13h-7q-22 -2 -30 -11.5t-8 -37.5v-464q0 -28 8 -37.5t30 -11.5h7zM335 772l-130 -93h-44
l89 93h85z" />
    <glyph glyph-name="icircumflex" unicode="&#xee;" horiz-adv-x="414" 
d="M290 -2h-8q-8 0 -25 1t-23 1h-53q-5 0 -22 -1t-26 -1h-9l6 13h7q22 2 29.5 11.5t7.5 37.5v464q0 28 -7.5 37.5t-29.5 11.5h-7l-6 13h9q9 0 26 -1t22 -1h53q6 0 23 1t25 1h8l-5 -13h-7q-22 -2 -30 -11.5t-8 -37.5v-464q0 -28 8 -37.5t30 -11.5h7zM315 680h-44l-62 45
l-62 -45h-44l89 94h34z" />
    <glyph glyph-name="idieresis" unicode="&#xef;" horiz-adv-x="414" 
d="M318 725l-44 -44l-44 44l44 44zM172 724l-44 -44l-44 44l44 44zM290 -2h-8q-8 0 -25 1t-23 1h-53q-5 0 -22 -1t-26 -1h-9l6 13h7q22 2 29.5 11.5t7.5 37.5v464q0 28 -7.5 37.5t-29.5 11.5h-7l-6 13h9q9 0 26 -1t22 -1h53q6 0 23 1t25 1h8l-5 -13h-7q-22 -2 -30 -11.5
t-8 -37.5v-464q0 -28 8 -37.5t30 -11.5h7z" />
    <glyph glyph-name="eth" unicode="&#xf0;" horiz-adv-x="746" 
d="M634 294q0 -125 -87 -210t-213 -85h-58q-36 1 -38 1h-72q-5 0 -22 -1t-26 -1h-8l5 13h7q22 2 30 11.5t8 37.5v236h-54v56h54v172q0 28 -8 37.5t-30 11.5h-7l-5 13h8q9 0 26 -1t22 -1h60q12 0 47 1t61 1q124 0 212 -84.5t88 -207.5zM571 291q0 98 -68.5 167.5t-165.5 69.5
h-113v-176h82v-56h-82v-240h113q97 0 165.5 69t68.5 166z" />
    <glyph glyph-name="ntilde" unicode="&#xf1;" horiz-adv-x="782" 
d="M673 -2h-9q-8 0 -25 1t-23 1h-50q-5 0 -22 -1t-26 -1h-8l5 13h7q22 2 30 11.5t8 37.5v6l-338 360v-366q0 -28 8 -37.5t30 -11.5h7l6 -13h-9q-8 0 -25 1t-23 1h-50q-5 0 -22 -1t-26 -1h-8l5 13h7q22 2 30 11.5t8 37.5v464q0 28 -8 37.5t-30 11.5h-7l-5 13h8q9 0 26 -1
t22 -1h50q6 0 23 1t25 1h9l-6 -13h-7q-22 -2 -30 -11.5t-8 -37.5v-8l338 -358v366q0 28 -8 37.5t-30 11.5h-7l-5 13h8q9 0 26 -1t22 -1h50q6 0 23 1t25 1h9l-6 -13h-7q-22 -2 -30 -11.5t-8 -37.5v-464q0 -28 8 -37.5t30 -11.5h7zM516 753q0 -30 -21.5 -51.5t-51.5 -21.5
q-35 0 -58 29q-11 13 -28 13q-15 0 -26.5 -11t-11.5 -26h-35q0 30 21.5 51.5t51.5 21.5q34 0 57 -28q12 -15 29 -15q15 0 26.5 11.5t11.5 26.5h35z" />
    <glyph glyph-name="ograve" unicode="&#xf2;" horiz-adv-x="838" 
d="M726 292q0 -127 -89.5 -217t-217.5 -90q-127 0 -217 90t-90 217t90 217t217 90q128 0 217.5 -89.5t89.5 -217.5zM663 319q-10 86 -70.5 146.5t-146.5 70.5v-217h217zM392 319v217q-85 -10 -146 -70.5t-71 -146.5h217zM663 265h-217v-217q85 10 146 71t71 146zM392 48v217
h-217q10 -85 71 -146t146 -71zM473 679h-45l-130 93h85z" />
    <glyph glyph-name="oacute" unicode="&#xf3;" horiz-adv-x="838" 
d="M726 292q0 -127 -89.5 -217t-217.5 -90q-127 0 -217 90t-90 217t90 217t217 90q128 0 217.5 -89.5t89.5 -217.5zM663 319q-10 86 -70.5 146.5t-146.5 70.5v-217h217zM392 319v217q-85 -10 -146 -70.5t-71 -146.5h217zM663 265h-217v-217q85 10 146 71t71 146zM392 48v217
h-217q10 -85 71 -146t146 -71zM529 772l-130 -93h-44l89 93h85z" />
    <glyph glyph-name="ocircumflex" unicode="&#xf4;" horiz-adv-x="838" 
d="M726 292q0 -127 -89.5 -217t-217.5 -90q-127 0 -217 90t-90 217t90 217t217 90q128 0 217.5 -89.5t89.5 -217.5zM663 319q-10 86 -70.5 146.5t-146.5 70.5v-217h217zM392 319v217q-85 -10 -146 -70.5t-71 -146.5h217zM663 265h-217v-217q85 10 146 71t71 146zM392 48v217
h-217q10 -85 71 -146t146 -71zM524 680h-44l-62 45l-62 -45h-44l89 94h34z" />
    <glyph glyph-name="otilde" unicode="&#xf5;" horiz-adv-x="838" 
d="M726 292q0 -127 -89.5 -217t-217.5 -90q-127 0 -217 90t-90 217t90 217t217 90q128 0 217.5 -89.5t89.5 -217.5zM663 319q-10 86 -70.5 146.5t-146.5 70.5v-217h217zM392 319v217q-85 -10 -146 -70.5t-71 -146.5h217zM663 265h-217v-217q85 10 146 71t71 146zM392 48v217
h-217q10 -85 71 -146t146 -71zM527 753q0 -30 -21.5 -51.5t-51.5 -21.5q-35 0 -58 29q-11 13 -28 13q-15 0 -26.5 -11t-11.5 -26h-35q0 30 21.5 51.5t51.5 21.5q34 0 57 -28q12 -15 29 -15q15 0 26.5 11.5t11.5 26.5h35z" />
    <glyph glyph-name="odieresis" unicode="&#xf6;" horiz-adv-x="838" 
d="M726 292q0 -127 -89.5 -217t-217.5 -90q-127 0 -217 90t-90 217t90 217t217 90q128 0 217.5 -89.5t89.5 -217.5zM663 319q-10 86 -70.5 146.5t-146.5 70.5v-217h217zM392 319v217q-85 -10 -146 -70.5t-71 -146.5h217zM663 265h-217v-217q85 10 146 71t71 146zM392 48v217
h-217q10 -85 71 -146t146 -71zM524 724l-44 -44l-44 44l44 44zM378 724l-44 -44l-44 44l44 44z" />
    <glyph glyph-name="divide" unicode="&#xf7;" 
 />
    <glyph glyph-name="oslash" unicode="&#xf8;" horiz-adv-x="838" 
d="M726 292q0 -127 -89.5 -217t-217.5 -90q-111 0 -197 71l-60 -60l-39 38l61 60q-72 86 -72 198q0 127 90 217t217 90q112 0 197 -72l67 67l38 -40l-66 -65q71 -87 71 -197zM572 483q-66 55 -153 55q-101 0 -173 -72.5t-72 -173.5q0 -85 53 -154zM665 292q0 86 -54 153
l-345 -345q67 -54 153 -54q101 0 173.5 72.5t72.5 173.5z" />
    <glyph glyph-name="ugrave" unicode="&#xf9;" horiz-adv-x="861" 
d="M789 586l-6 -13h-7q-22 -2 -30 -11.5t-8 -37.5v-232q0 -127 -89.5 -217t-217.5 -90q-127 0 -217 90t-90 217v232q0 28 -8 37.5t-30 11.5h-7l-5 13h8q9 0 26 -1t22 -1h49q6 0 23 1t25 1h9l-6 -13h-7q-22 -2 -29.5 -11.5t-7.5 -37.5v-232q0 -101 72 -173.5t173 -72.5
t173.5 72.5t72.5 173.5v232q0 28 -8 37.5t-30 11.5h-7l-6 13h9q9 0 26 -1t22 -1h49q6 0 23 1t25 1h9zM496 679h-45l-130 93h85z" />
    <glyph glyph-name="uacute" unicode="&#xfa;" horiz-adv-x="861" 
d="M789 586l-6 -13h-7q-22 -2 -30 -11.5t-8 -37.5v-232q0 -127 -89.5 -217t-217.5 -90q-127 0 -217 90t-90 217v232q0 28 -8 37.5t-30 11.5h-7l-5 13h8q9 0 26 -1t22 -1h49q6 0 23 1t25 1h9l-6 -13h-7q-22 -2 -29.5 -11.5t-7.5 -37.5v-232q0 -101 72 -173.5t173 -72.5
t173.5 72.5t72.5 173.5v232q0 28 -8 37.5t-30 11.5h-7l-6 13h9q9 0 26 -1t22 -1h49q6 0 23 1t25 1h9zM561 772l-130 -93h-44l89 93h85z" />
    <glyph glyph-name="ucircumflex" unicode="&#xfb;" horiz-adv-x="861" 
d="M789 586l-6 -13h-7q-22 -2 -30 -11.5t-8 -37.5v-232q0 -127 -89.5 -217t-217.5 -90q-127 0 -217 90t-90 217v232q0 28 -8 37.5t-30 11.5h-7l-5 13h8q9 0 26 -1t22 -1h49q6 0 23 1t25 1h9l-6 -13h-7q-22 -2 -29.5 -11.5t-7.5 -37.5v-232q0 -101 72 -173.5t173 -72.5
t173.5 72.5t72.5 173.5v232q0 28 -8 37.5t-30 11.5h-7l-6 13h9q9 0 26 -1t22 -1h49q6 0 23 1t25 1h9zM548 680h-44l-62 45l-62 -45h-44l89 94h34z" />
    <glyph glyph-name="udieresis" unicode="&#xfc;" horiz-adv-x="861" 
d="M789 586l-6 -13h-7q-22 -2 -30 -11.5t-8 -37.5v-232q0 -127 -89.5 -217t-217.5 -90q-127 0 -217 90t-90 217v232q0 28 -8 37.5t-30 11.5h-7l-5 13h8q9 0 26 -1t22 -1h49q6 0 23 1t25 1h9l-6 -13h-7q-22 -2 -29.5 -11.5t-7.5 -37.5v-232q0 -101 72 -173.5t173 -72.5
t173.5 72.5t72.5 173.5v232q0 28 -8 37.5t-30 11.5h-7l-6 13h9q9 0 26 -1t22 -1h49q6 0 23 1t25 1h9zM570 724l-44 -44l-44 44l44 44zM424 724l-44 -44l-44 44l44 44z" />
    <glyph glyph-name="yacute" unicode="&#xfd;" horiz-adv-x="784" 
d="M718 506l-13 -5l-5 5q-17 13 -27 13q-13 0 -34 -21l-219 -220v-218q0 -28 8 -37.5t30 -11.5h7l5 -13h-8q-8 0 -25 1t-23 1h-50q-5 0 -22 -1t-26 -1h-9l6 13h7q22 2 30 11.5t8 37.5v218l-220 220q-21 21 -34 21q-9 0 -26 -13l-5 -5l-14 5l7 7q6 6 18.5 17t16.5 15l35 35
q14 14 32 35l6 7l6 -14l-5 -5q-13 -17 -13 -27q0 -13 21 -34l206 -205l205 205q21 21 21 35q0 10 -13 26q-2 3 -4 5l5 14l7 -7q12 -13 32 -35l35 -35q12 -10 35 -32zM536 772l-130 -93h-44l89 93h85z" />
    <glyph glyph-name="thorn" unicode="&#xfe;" horiz-adv-x="560" 
d="M484 342q0 -75 -53 -128t-128 -53h-81v-101q0 -28 8 -37.5t30 -11.5h7l6 -13h-9q-8 0 -25 1t-23 1h-50q-5 0 -22 -1t-26 -1h-8l5 13h7q22 2 30 11.5t8 37.5v464q0 28 -8 37.5t-30 11.5h-7l-5 13h8q9 0 26 -1t22 -1h50q6 0 23 1t25 1h9l-6 -13h-7q-22 -2 -30 -11.5
t-8 -37.5v-8h81q76 0 128.5 -50t52.5 -124zM423 342q0 51 -35.5 84t-88.5 33h-77v-241h77q53 0 88.5 36t35.5 88z" />
    <glyph glyph-name="ydieresis" unicode="&#xff;" horiz-adv-x="784" 
d="M718 506l-13 -5l-5 5q-17 13 -27 13q-13 0 -34 -21l-219 -220v-218q0 -28 8 -37.5t30 -11.5h7l5 -13h-8q-8 0 -25 1t-23 1h-50q-5 0 -22 -1t-26 -1h-9l6 13h7q22 2 30 11.5t8 37.5v218l-220 220q-21 21 -34 21q-9 0 -26 -13l-5 -5l-14 5l7 7q6 6 18.5 17t16.5 15l35 35
q14 14 32 35l6 7l6 -14l-5 -5q-13 -17 -13 -27q0 -13 21 -34l206 -205l205 205q21 21 21 35q0 10 -13 26q-2 3 -4 5l5 14l7 -7q12 -13 32 -35l35 -35q12 -10 35 -32zM512 723l-44 -44l-44 44l44 44zM366 723l-44 -44l-44 44l44 44z" />
    <glyph glyph-name="dotlessi" unicode="&#x131;" horiz-adv-x="414" 
d="M290 -2h-8q-8 0 -25 1t-23 1h-53q-5 0 -22 -1t-26 -1h-9l6 13h7q22 2 29.5 11.5t7.5 37.5v464q0 28 -7.5 37.5t-29.5 11.5h-7l-6 13h9q9 0 26 -1t22 -1h53q6 0 23 1t25 1h8l-5 -13h-7q-22 -2 -30 -11.5t-8 -37.5v-464q0 -28 8 -37.5t30 -11.5h7z" />
    <glyph glyph-name="Lslash" unicode="&#x141;" horiz-adv-x="600" 
d="M538 -50l-13 5v7q-2 22 -11.5 30t-37.5 8h-212l-56 -56v365l-70 -27v40l70 27v175q0 28 -8 37.5t-30 11.5h-7l-5 13h8q9 0 26 -1t22 -1h50q6 0 23 1t25 1h9l-6 -13h-7q-22 -2 -30 -11.5t-8 -37.5v-150l71 28v-40l-71 -28v-272h206q28 0 37.5 8t11.5 30v7l13 6v-9
q0 -8 -1 -25t-1 -23v-50q0 -5 1 -22.5t1 -25.5v-8z" />
    <glyph glyph-name="lslash" unicode="&#x142;" horiz-adv-x="600" 
d="M538 -50l-13 5v7q-2 22 -11.5 30t-37.5 8h-212l-56 -56v365l-70 -27v40l70 27v175q0 28 -8 37.5t-30 11.5h-7l-5 13h8q9 0 26 -1t22 -1h50q6 0 23 1t25 1h9l-6 -13h-7q-22 -2 -30 -11.5t-8 -37.5v-150l71 28v-40l-71 -28v-272h206q28 0 37.5 8t11.5 30v7l13 6v-9
q0 -8 -1 -25t-1 -23v-50q0 -5 1 -22.5t1 -25.5v-8z" />
    <glyph glyph-name="OE" unicode="&#x152;" horiz-adv-x="1120" 
d="M977 -50l-14 5v7q-2 22 -11 30t-38 8h-194l-56 -56v162q-93 -121 -245 -121q-127 0 -217 90t-90 217t90 217t217 90q152 0 245 -121v106h250q29 0 38 8t11 30v7l14 5v-8q0 -8 -1.5 -25t-1.5 -23v-50q0 -5 1.5 -22t1.5 -26v-9l-14 6v7q-2 22 -11 30t-38 8h-188v-180h184
q28 0 37 7.5t11 29.5v7l14 6v-9q0 -8 -1 -25t-1 -23v-49q0 -5 1 -22t1 -26v-9l-14 5v8q-2 22 -11 29.5t-37 7.5h-184v-217h188q29 0 38 8t11 30v7l14 6v-9q0 -8 -1.5 -25t-1.5 -23v-50q0 -5 1.5 -22.5t1.5 -25.5v-8zM663 319q-10 86 -70.5 146.5t-146.5 70.5v-217h217z
M392 319v217q-85 -10 -146 -70.5t-71 -146.5h217zM663 265h-217v-217q85 10 146 71t71 146zM392 48v217h-217q10 -85 71 -146t146 -71z" />
    <glyph glyph-name="oe" unicode="&#x153;" horiz-adv-x="1120" 
d="M977 -50l-14 5v7q-2 22 -11 30t-38 8h-194l-56 -56v162q-93 -121 -245 -121q-127 0 -217 90t-90 217t90 217t217 90q152 0 245 -121v106h250q29 0 38 8t11 30v7l14 5v-8q0 -8 -1.5 -25t-1.5 -23v-50q0 -5 1.5 -22t1.5 -26v-9l-14 6v7q-2 22 -11 30t-38 8h-188v-180h184
q28 0 37 7.5t11 29.5v7l14 6v-9q0 -8 -1 -25t-1 -23v-49q0 -5 1 -22t1 -26v-9l-14 5v8q-2 22 -11 29.5t-37 7.5h-184v-217h188q29 0 38 8t11 30v7l14 6v-9q0 -8 -1.5 -25t-1.5 -23v-50q0 -5 1.5 -22.5t1.5 -25.5v-8zM663 319q-10 86 -70.5 146.5t-146.5 70.5v-217h217z
M392 319v217q-85 -10 -146 -70.5t-71 -146.5h217zM663 265h-217v-217q85 10 146 71t71 146zM392 48v217h-217q10 -85 71 -146t146 -71z" />
    <glyph glyph-name="Scaron" unicode="&#x160;" horiz-adv-x="580" 
d="M470 153q0 -73 -56 -119.5t-134 -46.5q-81 0 -132 55q-34 37 -42 77l82 36l6 -10q-21 -13 -21 -27q0 -20 28 -44q34 -30 82 -30q56 0 90.5 32t34.5 78q0 54 -86 101l-92 50q-58 32 -81 67q-19 30 -19 74q0 63 47 104t111 41q112 0 162 -97l-68 -61l-8 13q16 15 16 28
q0 22 -29.5 41.5t-66.5 19.5q-51 0 -78 -28q-25 -24 -25 -61q0 -48 75 -88l108 -58q96 -52 96 -147zM398 773l-89 -94h-34l-89 94h44l62 -45l62 45h44z" />
    <glyph glyph-name="scaron" unicode="&#x161;" horiz-adv-x="580" 
d="M470 153q0 -73 -56 -119.5t-134 -46.5q-81 0 -132 55q-34 37 -42 77l82 36l6 -10q-21 -13 -21 -27q0 -20 28 -44q34 -30 82 -30q56 0 90.5 32t34.5 78q0 54 -86 101l-92 50q-58 32 -81 67q-19 30 -19 74q0 63 47 104t111 41q112 0 162 -97l-68 -61l-8 13q16 15 16 28
q0 22 -29.5 41.5t-66.5 19.5q-51 0 -78 -28q-25 -24 -25 -61q0 -48 75 -88l108 -58q96 -52 96 -147zM398 773l-89 -94h-34l-89 94h44l62 -45l62 45h44z" />
    <glyph glyph-name="Ydieresis" unicode="&#x178;" horiz-adv-x="784" 
d="M718 506l-13 -5l-5 5q-17 13 -27 13q-13 0 -34 -21l-219 -220v-218q0 -28 8 -37.5t30 -11.5h7l5 -13h-8q-8 0 -25 1t-23 1h-50q-5 0 -22 -1t-26 -1h-9l6 13h7q22 2 30 11.5t8 37.5v218l-220 220q-21 21 -34 21q-9 0 -26 -13l-5 -5l-14 5l7 7q6 6 18.5 17t16.5 15l35 35
q14 14 32 35l6 7l6 -14l-5 -5q-13 -17 -13 -27q0 -13 21 -34l206 -205l205 205q21 21 21 35q0 10 -13 26q-2 3 -4 5l5 14l7 -7q12 -13 32 -35l35 -35q12 -10 35 -32zM521 723l-44 -44l-44 44l44 44zM375 723l-44 -44l-44 44l44 44z" />
    <glyph glyph-name="Zcaron" unicode="&#x17d;" horiz-adv-x="670" 
d="M566 -50l-14 5v7q-2 22 -11.5 30t-37.5 8h-384l327 522h-268q-28 0 -37 -8t-11 -30v-7l-14 -6v9q0 9 1 26t1 22v50q0 6 -1 23t-1 25v8l14 -5v-7q2 -22 11 -30t37 -8h382l-326 -522h269q28 0 37.5 8t11.5 30v7l14 6v-9q0 -8 -1.5 -25t-1.5 -23v-50q0 -5 1.5 -22.5
t1.5 -25.5v-8zM459 773l-89 -94h-34l-89 94h44l62 -45l62 45h44z" />
    <glyph glyph-name="zcaron" unicode="&#x17e;" horiz-adv-x="670" 
d="M566 -50l-14 5v7q-2 22 -11.5 30t-37.5 8h-384l327 522h-268q-28 0 -37 -8t-11 -30v-7l-14 -6v9q0 9 1 26t1 22v50q0 6 -1 23t-1 25v8l14 -5v-7q2 -22 11 -30t37 -8h382l-326 -522h269q28 0 37.5 8t11.5 30v7l14 6v-9q0 -8 -1.5 -25t-1.5 -23v-50q0 -5 1.5 -22.5
t1.5 -25.5v-8zM459 773l-89 -94h-34l-89 94h44l62 -45l62 45h44z" />
    <glyph glyph-name="florin" unicode="&#x192;" horiz-adv-x="456" 
d="M405 469l-15 6v7q-4 39 -37 39q-54 0 -67 -76l-12 -71h81l-6 -48h-83l-55 -328q-12 -72 -34 -106q-32 -50 -98 -50q-24 0 -28 -37v-7l-14 -6v9q0 12 1 27.5t1 20.5v50q0 5 -1 20.5t-1 27.5v9l14 -6v-7q3 -38 38 -38q41 0 53 68l61 353h-68l7 48h70l9 52q13 75 38 110
q31 45 91 45q37 0 40 39v6l15 7v-9q0 -12 -1.5 -27.5t-1.5 -20.5v-50q0 -5 1.5 -20.5t1.5 -27.5v-9z" />
    <glyph glyph-name="circumflex" unicode="&#x2c6;" horiz-adv-x="478" 
d="M342 480h-44l-62 45l-62 -45h-44l89 94h34z" />
    <glyph glyph-name="caron" unicode="&#x2c7;" horiz-adv-x="478" 
d="M342 574l-89 -94h-34l-89 94h44l62 -45l62 45h44z" />
    <glyph glyph-name="breve" unicode="&#x2d8;" horiz-adv-x="478" 
d="M366 574q-44 -94 -130 -94q-81 0 -130 94h44q28 -53 86 -53q50 0 86 53h44z" />
    <glyph glyph-name="dotaccent" unicode="&#x2d9;" horiz-adv-x="222" 
d="M190 564l-80 -84l-80 80l80 85z" />
    <glyph glyph-name="ring" unicode="&#x2da;" horiz-adv-x="296" 
d="M221 550q0 -31 -23 -54t-55 -23q-31 0 -54 23t-23 54q0 32 23 55t54 23q32 0 55 -23t23 -55zM186 550q0 17 -13 30t-30 13q-16 0 -29 -13t-13 -30q0 -15 13 -28.5t29 -13.5t29.5 13.5t13.5 28.5z" />
    <glyph glyph-name="ogonek" unicode="&#x2db;" horiz-adv-x="435" 
d="M232 -45l-114 -81h-44l84 96z" />
    <glyph glyph-name="tilde" unicode="&#x2dc;" horiz-adv-x="478" 
d="M368 553q0 -30 -21.5 -51.5t-51.5 -21.5q-35 0 -58 29q-11 13 -28 13q-15 0 -26.5 -11t-11.5 -26h-35q0 30 21.5 51.5t51.5 21.5q34 0 57 -28q12 -15 29 -15q15 0 26.5 11.5t11.5 26.5h35z" />
    <glyph glyph-name="hungarumlaut" unicode="&#x2dd;" horiz-adv-x="478" 
d="M405 607l-111 -114l-44 -8l72 108zM258 607l-112 -114l-44 -8l72 108z" />
    <glyph glyph-name="summation" unicode="&#x3a3;" 
 />
    <glyph glyph-name="Omega" unicode="&#x3a9;" 
 />
    <glyph glyph-name="pi" unicode="&#x3c0;" 
 />
    <glyph glyph-name="endash" unicode="&#x2013;" horiz-adv-x="400" 
d="M384 224l-14 6v7q-2 22 -11 29.5t-37 7.5h-244q-28 0 -37 -7.5t-11 -29.5v-7l-14 -6v9q0 9 1 26t1 22v49q0 6 -1 23t-1 25v9l14 -5v-8q2 -22 11 -29.5t37 -7.5h244q28 0 37 7.5t11 29.5v8l14 5v-9q0 -8 -1 -25t-1 -23v-49q0 -5 1 -22t1 -26v-9z" />
    <glyph glyph-name="emdash" unicode="&#x2014;" horiz-adv-x="800" 
d="M784 224l-14 6v7q-2 22 -11 29.5t-37 7.5h-644q-28 0 -37 -7.5t-11 -29.5v-7l-14 -6v9q0 9 1 26t1 22v49q0 6 -1 23t-1 25v9l14 -5v-8q2 -22 11 -29.5t37 -7.5h644q28 0 37 7.5t11 29.5v8l14 5v-9q0 -8 -1 -25t-1 -23v-49q0 -5 1 -22t1 -26v-9z" />
    <glyph glyph-name="quoteleft" unicode="&#x2018;" horiz-adv-x="320" 
d="M240 446l-28 -28l-126 126l72 72l72 -72l-44 -44z" />
    <glyph glyph-name="quoteright" unicode="&#x2019;" horiz-adv-x="320" 
d="M240 544l-126 -126l-28 28l54 54l-44 44l72 72z" />
    <glyph glyph-name="quotesinglbase" unicode="&#x201a;" horiz-adv-x="320" 
d="M232 45l-126 -126l-28 28l54 54l-44 44l72 72z" />
    <glyph glyph-name="quotedblleft" unicode="&#x201c;" horiz-adv-x="534" 
d="M446 446l-28 -28l-125 126l72 72l72 -72l-44 -44zM232 446l-28 -28l-126 126l72 72l72 -72l-44 -44z" />
    <glyph glyph-name="quotedblright" unicode="&#x201d;" horiz-adv-x="534" 
d="M446 544l-125 -126l-28 28l53 54l-44 44l72 72zM232 544l-126 -126l-28 28l54 54l-44 44l72 72z" />
    <glyph glyph-name="quotedblbase" unicode="&#x201e;" horiz-adv-x="534" 
d="M446 45l-125 -126l-28 28l53 54l-44 44l72 72zM232 45l-126 -126l-28 28l54 54l-44 44l72 72z" />
    <glyph glyph-name="dagger" unicode="&#x2020;" horiz-adv-x="539" 
d="M435 328l-13 6v7q-3 22 -12 29.5t-37 7.5h-72v-413l44 -44l-75 -75l-76 75l44 44v413h-72q-28 0 -37 -7.5t-11 -29.5v-7l-14 -6v9q0 9 1 26t1 22v49q0 6 -1 23t-1 25v9l14 -5v-8q2 -22 11 -29.5t37 -7.5h72v83q0 28 -7.5 37.5t-29.5 11.5h-7l-6 13h9q9 0 26 -1t22 -1h49
q6 0 23 1t25 1h9l-5 -13h-8q-22 -2 -29.5 -11.5t-7.5 -37.5v-83h72q28 0 37 7.5t12 29.5v8l13 5v-9q0 -8 -1 -25t-1 -23v-49q0 -5 1 -22t1 -26v-9z" />
    <glyph glyph-name="daggerdbl" unicode="&#x2021;" horiz-adv-x="634" 
d="M517 584l-237 -587q-43 3 -56 3q-9 0 -28 -1t-26 -1h-8l5 13q4 -1 7 0q47 6 64 49l186 462h-254q-28 0 -37 -8t-11 -30v-7l-14 -6v9q0 9 1 26t1 22v58q39 -2 60 -2h347z" />
    <glyph glyph-name="bullet" unicode="&#x2022;" horiz-adv-x="438" 
d="M334 292q0 -47 -34 -81t-81 -34t-81 34t-34 81t34 81t81 34t81 -34t34 -81z" />
    <glyph glyph-name="ellipsis" unicode="&#x2026;" horiz-adv-x="960" 
d="M872 45l-72 -72l-72 72l72 72zM552 45l-72 -72l-72 72l72 72zM232 45l-72 -72l-72 72l72 72z" />
    <glyph glyph-name="perthousand" unicode="&#x2030;" horiz-adv-x="1138" 
d="M384 442q0 -59 -41.5 -100t-100.5 -41q-58 0 -99.5 41.5t-41.5 99.5q0 59 41 100.5t100 41.5t100.5 -41.5t41.5 -100.5zM613 584l-356 -584h-53l356 584h53zM1052 142q0 -59 -41.5 -100.5t-100.5 -41.5t-100 41.5t-41 100.5t41.5 100t99.5 41q59 0 100.5 -41t41.5 -100z
M716 142q0 -59 -41.5 -100.5t-100.5 -41.5t-100 41.5t-41 100.5t41.5 100t99.5 41q59 0 100.5 -41t41.5 -100zM297 522q-24 16 -55 16q-39 0 -67.5 -28t-28.5 -68q0 -28 17 -54zM338 442q0 30 -14 52l-133 -133q23 -15 51 -15q40 0 68 28t28 68zM965 221q-25 17 -55 17
q-39 0 -67.5 -28.5t-28.5 -67.5q0 -29 17 -55zM629 221q-25 17 -55 17q-39 0 -67.5 -28.5t-28.5 -67.5q0 -29 17 -55zM1006 142q0 30 -14 51l-133 -133q21 -14 51 -14q40 0 68 28t28 68zM670 142q0 30 -14 51l-133 -133q21 -14 51 -14q40 0 68 28t28 68z" />
    <glyph glyph-name="guilsinglleft" unicode="&#x2039;" horiz-adv-x="602" 
d="M514 584l-171 -226q63 -15 105 -66.5t42 -117.5q0 -78 -55.5 -133.5t-133.5 -55.5t-133.5 55.5t-55.5 133.5q0 11 2 36h50q6 0 23 1t25 1h9l-6 -14h-7q-34 -3 -34 -24q0 -52 37.5 -89.5t89.5 -37.5t89 37.5t37 89.5q0 49 -33 85q-40 43 -108 43q-33 0 -72 -11l174 231
h-196q-28 0 -37.5 -8t-11.5 -30v-7l-13 -6v9q0 9 1 26t1 22v58q39 -2 60 -2h322z" />
    <glyph glyph-name="guilsinglright" unicode="&#x203a;" horiz-adv-x="604" 
d="M500 94l-14 6v7q-2 22 -11 30t-37 8h-50v-85q0 -28 8 -37.5t30 -11.5h7l5 -13h-8q-8 0 -25 1t-23 1h-50q-5 0 -22 -1t-26 -1h-9l6 13h7q22 2 30 11.5t8 37.5v85h-265l327 468v-406h50q28 0 37 8t11 30v7l14 6v-9q0 -8 -1 -25t-1 -23v-50q0 -5 1 -22t1 -26v-9zM326 207
v216l-151 -216h151z" />
    <glyph glyph-name="trademark" unicode="&#x2122;" horiz-adv-x="998" 
d="M889 249h-15q-4 0 -14 1h-12h-27h-13q-9 -1 -14 -1h-14l9 12h6q15 1 15 21v253h-94v-253q0 -20 14 -21h8l8 -12h-14q-5 0 -14 1h-12h-28h-12q-9 -1 -14 -1h-14l8 12h8q15 1 15 21v253h-95v-253q0 -20 14 -21h8l9 -12h-15q-4 0 -14 1h-12h-28h-12q-10 -1 -14 -1h-15l9 12
h7q15 1 15 21v270q0 20 -15 21h-7l-9 12h15h14q9 -1 12 -1h132q-5 17 -14 18h-8l-8 12h14q5 0 14 -1t12 -1h28q3 0 12 1t14 1h14l-8 -12h-8q-11 -1 -13 -18h131q3 0 12 1h14h15l-9 -12h-7q-15 -1 -15 -21v-270q0 -20 14 -21h8zM416 363l-13 8v7q-1 16 -20 16h-112v-112
q0 -20 15 -21h8l8 -12h-14q-5 0 -14 1h-12h-28h-12q-9 -1 -14 -1h-14l7 12h8q15 1 15 21v112h-111q-20 0 -21 -15v-8l-12 -9v15q0 5 1 14v12v27v13q-1 9 -1 14v14l12 -9v-7q1 -15 21 -15h111v112q0 20 -15 21h-8l-7 12h14h14q9 -1 12 -1h28q3 0 12 1h14h14l-8 -12h-8
q-15 -1 -15 -21v-112h112q19 0 20 15v7l13 8v-13q0 -5 -1 -14.5t-1 -12.5v-27q0 -3 1 -12t1 -14v-14z" />
    <glyph glyph-name="partialdiff" unicode="&#x2202;" horiz-adv-x="595" 
d="M520 184q0 -82 -58.5 -140.5t-140.5 -58.5t-140.5 58.5t-58.5 140.5q0 83 58.5 141t140.5 58l-59 62l-43 -36l-29 32l42 35l-34 33q-11 11 -24 11t-26 -12q-2 -1 -5 -5l-14 7l6 6q14 11 37 31l36 35q8 11 33 35l7 6l6 -16q-3 0 -5 -3q-14 -17 -14 -28q0 -10 11 -22
l34 -37l62 52l30 -32l-62 -52l141 -150q69 -73 69 -151zM458 184q0 57 -40 97.5t-97 40.5t-97.5 -40.5t-40.5 -97.5t40.5 -97t97.5 -40t97 40t40 97z" />
    <glyph glyph-name="Delta" unicode="&#x2206;" 
 />
    <glyph glyph-name="product" unicode="&#x220f;" 
 />
    <glyph glyph-name="fraction" unicode="&#x2215;" horiz-adv-x="446" 
d="M306 -2h-8q-8 0 -25 1t-23 1h-53q-5 0 -22 -1t-26 -1h-9l6 13h7q22 2 29.5 11.5t7.5 37.5v464q0 28 -7.5 37.5t-29.5 11.5h-7l-6 13h9q9 0 26 -1t22 -1h53q6 0 23 1t25 1h8l-5 -13h-7q-22 -2 -30 -11.5t-8 -37.5v-464q0 -28 8 -37.5t30 -11.5h7z" />
    <glyph glyph-name="periodcentered" unicode="&#x2219;" horiz-adv-x="602" 
d="M490 410q0 -39 -18 -78q-7 -16 -38 -67l-162 -267h-62q-10 0 -26 -1.5t-22 -1.5h-9l5 14q4 -1 8 0q23 3 32 8q16 9 36 41l104 167q-18 -3 -37 -3q-78 0 -133.5 55t-55.5 133t55.5 133.5t133.5 55.5t133.5 -55.5t55.5 -133.5zM427 410q0 52 -37 89.5t-89 37.5t-89.5 -37
t-37.5 -90q0 -52 37.5 -89t89.5 -37t89 37t37 89z" />
    <glyph glyph-name="radical" unicode="&#x221a;" 
 />
    <glyph glyph-name="infinity" unicode="&#x221e;" horiz-adv-x="602" 
d="M490 174q0 -78 -55.5 -133.5t-133.5 -55.5t-133.5 55.5t-55.5 133.5q0 11 2 36h50q6 0 23 1t25 1h9l-6 -14h-7q-34 -3 -34 -24q0 -52 37.5 -89.5t89.5 -37.5t89 37.5t37 89.5t-37 89t-89 37q-70 0 -105 -31l-61 13l43 302h219q21 0 60 2v-58q0 -5 1 -22t1 -26v-9l-13 6v7
q-3 22 -12 30t-37 8h-166l-26 -187q38 27 96 27q78 0 133.5 -55t55.5 -133z" />
    <glyph glyph-name="integral" unicode="&#x222b;" 
 />
    <glyph glyph-name="approxequal" unicode="&#x2248;" 
 />
    <glyph glyph-name="notequal" unicode="&#x2260;" 
 />
    <glyph glyph-name="lessequal" unicode="&#x2264;" horiz-adv-x="440" 
d="M346 206l-7 -5q-13 -12 -35 -33l-26 -25q-10 -12 -32 -36l-6 -6l-6 13q2 2 5 6q13 16 13 26q0 14 -21 35l-111 111l111 112q21 21 21 35q0 10 -13 26l-5 5l6 13l6 -5q6 -6 17 -19t15 -17l26 -26q14 -14 35 -32l7 -6l-14 -6q-1 2 -5 6q-17 12 -27 12q-14 0 -34 -20
l-77 -78l77 -77q21 -21 34 -21q10 0 27 13q2 3 5 6z" />
    <glyph glyph-name="greaterequal" unicode="&#x2265;" horiz-adv-x="440" 
d="M314 292l-112 -111q-21 -21 -21 -34q0 -10 13 -27q3 -2 5 -6l-5 -13l-6 6q-12 13 -33 36l-25 25q-18 18 -36 33l-6 5l14 7q2 -1 4 -6q17 -13 28 -13q13 0 34 21l77 77l-77 78q-20 20 -34 20q-10 0 -28 -12q-1 -3 -4 -6l-14 6l6 6q14 12 36 32l25 26l33 36l6 5l5 -13
l-5 -5q-13 -17 -13 -27q0 -13 21 -34z" />
    <glyph glyph-name="lozenge" unicode="&#x25ca;" 
 />
    <glyph glyph-name="apple" unicode="&#xf000;" 
 />
    <glyph glyph-name="fi" unicode="&#xf001;" horiz-adv-x="931" 
d="M812 -2h-9q-8 0 -25 1t-23 1h-53q-5 0 -22 -1t-26 -1h-8l5 13h7q22 2 30 11.5t8 37.5v462h-438v-180h184q28 0 37 7.5t11 29.5v7l14 6v-9q0 -8 -1 -25t-1 -23v-49q0 -5 1 -22t1 -26v-9l-14 5v8q-2 22 -11 29.5t-37 7.5h-184v-273l-62 -62v335q-21 -1 -28 -9t-10 -28v-8
l-13 -5v9q0 9 1 26t1 22v49q0 6 -1 23t-1 25v9l13 -6v-7q3 -20 10 -28t28 -9v242h559q6 0 23 1t25 1h9l-6 -13h-7q-22 -2 -29.5 -11.5t-7.5 -37.5v-464q0 -28 7.5 -37.5t29.5 -11.5h7z" />
    <glyph glyph-name="fl" unicode="&#xf002;" horiz-adv-x="1104" 
d="M1026 -50l-13 5v7q-2 22 -11.5 30t-37.5 8h-212l-56 -56v578h-438v-180h184q28 0 37 7.5t11 29.5v7l14 6v-9q0 -8 -1 -25t-1 -23v-49q0 -5 1 -22t1 -26v-9l-14 5v8q-2 22 -11 29.5t-37 7.5h-184v-273l-62 -62v335q-21 -1 -28 -9t-10 -28v-8l-13 -5v9q0 9 1 26t1 22v49
q0 6 -1 23t-1 25v9l13 -6v-7q3 -20 10 -28t28 -9v242h556q6 0 23 1t25 1h9l-6 -13h-7q-22 -2 -30 -11.5t-8 -37.5v-462h206q28 0 37.5 8t11.5 30v7l13 6v-9q0 -8 -1 -25t-1 -23v-50q0 -5 1 -22.5t1 -25.5v-8z" />
    <glyph glyph-name=".null" 
 />
    <glyph glyph-name="HT" 
 />
    <glyph glyph-name="LF" 
 />
    <glyph glyph-name="nonmarkingreturn" 
 />
    <glyph glyph-name="DLE" 
 />
    <glyph glyph-name="DC1" 
 />
    <glyph glyph-name="DC2" 
 />
    <glyph glyph-name="DC3" 
 />
    <glyph glyph-name="DC4" 
 />
    <glyph glyph-name="RS" 
 />
    <glyph glyph-name="US" 
 />
    <glyph glyph-name="DEL" 
 />
    <glyph glyph-name="glyph259" horiz-adv-x="500" 
 />
  </font>
</defs>
</svg>
